  0
SECTION
  2
HEADER
  9
$ACADVER
  1
AC1015
  9
$ACADMAINTVER
 70
     6
  9
$DWGCODEPAGE
  3
ANSI_1252
  9
$INSBASE
 10
0.0
 20
0.0
 30
0.0
  9
$EXTMIN
 10
0.0
 20
0.0
 30
0.0
  9
$EXTMAX
 10
594.0000000000005
 20
420.0000000000002
 30
0.0
  9
$LIMMIN
 10
0.0
 20
0.0
  9
$LIMMAX
 10
12.0
 20
9.0
  9
$ORTHOMODE
 70
     0
  9
$REGENMODE
 70
     1
  9
$FILLMODE
 70
     1
  9
$QTEXTMODE
 70
     0
  9
$MIRRTEXT
 70
     1
  9
$LTSCALE
 40
1.0
  9
$ATTMODE
 70
     1
  9
$TEXTSIZE
 40
0.2
  9
$TRACEWID
 40
0.05
  9
$TEXTSTYLE
  7
Standard
  9
$CLAYER
  8
0
  9
$CELTYPE
  6
ByLayer
  9
$CECOLOR
 62
   256
  9
$CELTSCALE
 40
1.0
  9
$DISPSILH
 70
     0
  9
$DIMSCALE
 40
1.0
  9
$DIMASZ
 40
0.18
  9
$DIMEXO
 40
0.0625
  9
$DIMDLI
 40
0.38
  9
$DIMRND
 40
0.0
  9
$DIMDLE
 40
0.0
  9
$DIMEXE
 40
0.18
  9
$DIMTP
 40
0.0
  9
$DIMTM
 40
0.0
  9
$DIMTXT
 40
0.18
  9
$DIMCEN
 40
0.09
  9
$DIMTSZ
 40
0.0
  9
$DIMTOL
 70
     0
  9
$DIMLIM
 70
     0
  9
$DIMTIH
 70
     1
  9
$DIMTOH
 70
     1
  9
$DIMSE1
 70
     0
  9
$DIMSE2
 70
     0
  9
$DIMTAD
 70
     0
  9
$DIMZIN
 70
     0
  9
$DIMBLK
  1

  9
$DIMASO
 70
     1
  9
$DIMSHO
 70
     1
  9
$DIMPOST
  1

  9
$DIMAPOST
  1

  9
$DIMALT
 70
     0
  9
$DIMALTD
 70
     2
  9
$DIMALTF
 40
25.4
  9
$DIMLFAC
 40
1.0
  9
$DIMTOFL
 70
     0
  9
$DIMTVP
 40
0.0
  9
$DIMTIX
 70
     0
  9
$DIMSOXD
 70
     0
  9
$DIMSAH
 70
     0
  9
$DIMBLK1
  1

  9
$DIMBLK2
  1

  9
$DIMSTYLE
  2
Standard
  9
$DIMCLRD
 70
     0
  9
$DIMCLRE
 70
     0
  9
$DIMCLRT
 70
     0
  9
$DIMTFAC
 40
1.0
  9
$DIMGAP
 40
0.09
  9
$DIMJUST
 70
     0
  9
$DIMSD1
 70
     0
  9
$DIMSD2
 70
     0
  9
$DIMTOLJ
 70
     1
  9
$DIMTZIN
 70
     0
  9
$DIMALTZ
 70
     0
  9
$DIMALTTZ
 70
     0
  9
$DIMUPT
 70
     0
  9
$DIMDEC
 70
     4
  9
$DIMTDEC
 70
     4
  9
$DIMALTU
 70
     2
  9
$DIMALTTD
 70
     2
  9
$DIMTXSTY
  7
Standard
  9
$DIMAUNIT
 70
     0
  9
$DIMADEC
 70
     0
  9
$DIMALTRND
 40
0.0
  9
$DIMAZIN
 70
     0
  9
$DIMDSEP
 70
    46
  9
$DIMATFIT
 70
     3
  9
$DIMFRAC
 70
     0
  9
$DIMLDRBLK
  1

  9
$DIMLUNIT
 70
     2
  9
$DIMLWD
 70
    -2
  9
$DIMLWE
 70
    -2
  9
$DIMTMOVE
 70
     0
  9
$LUNITS
 70
     2
  9
$LUPREC
 70
     4
  9
$SKETCHINC
 40
0.1
  9
$FILLETRAD
 40
0.5
  9
$AUNITS
 70
     0
  9
$AUPREC
 70
     0
  9
$MENU
  1
.
  9
$ELEVATION
 40
0.0
  9
$PELEVATION
 40
0.0
  9
$THICKNESS
 40
0.0
  9
$LIMCHECK
 70
     0
  9
$CHAMFERA
 40
0.5
  9
$CHAMFERB
 40
0.5
  9
$CHAMFERC
 40
1.0
  9
$CHAMFERD
 40
0.0
  9
$SKPOLY
 70
     0
  9
$TDCREATE
 40
2456997.606552246
  9
$TDUCREATE
 40
2456997.564885579
  9
$TDUPDATE
 40
2456997.606552604
  9
$TDUUPDATE
 40
2456997.564885938
  9
$TDINDWG
 40
0.0000000116
  9
$TDUSRTIMER
 40
0.0000000116
  9
$USRTIMER
 70
     1
  9
$ANGBASE
 50
0.0
  9
$ANGDIR
 70
     0
  9
$PDMODE
 70
     0
  9
$PDSIZE
 40
0.0
  9
$PLINEWID
 40
0.0
  9
$SPLFRAME
 70
     0
  9
$SPLINETYPE
 70
     6
  9
$SPLINESEGS
 70
     8
  9
$HANDSEED
  5
34F
  9
$SURFTAB1
 70
     6
  9
$SURFTAB2
 70
     6
  9
$SURFTYPE
 70
     6
  9
$SURFU
 70
     6
  9
$SURFV
 70
     6
  9
$UCSBASE
  2

  9
$UCSNAME
  2

  9
$UCSORG
 10
0.0
 20
0.0
 30
0.0
  9
$UCSXDIR
 10
1.0
 20
0.0
 30
0.0
  9
$UCSYDIR
 10
0.0
 20
1.0
 30
0.0
  9
$UCSORTHOREF
  2

  9
$UCSORTHOVIEW
 70
     0
  9
$UCSORGTOP
 10
0.0
 20
0.0
 30
0.0
  9
$UCSORGBOTTOM
 10
0.0
 20
0.0
 30
0.0
  9
$UCSORGLEFT
 10
0.0
 20
0.0
 30
0.0
  9
$UCSORGRIGHT
 10
0.0
 20
0.0
 30
0.0
  9
$UCSORGFRONT
 10
0.0
 20
0.0
 30
0.0
  9
$UCSORGBACK
 10
0.0
 20
0.0
 30
0.0
  9
$PUCSBASE
  2

  9
$PUCSNAME
  2

  9
$PUCSORG
 10
0.0
 20
0.0
 30
0.0
  9
$PUCSXDIR
 10
1.0
 20
0.0
 30
0.0
  9
$PUCSYDIR
 10
0.0
 20
1.0
 30
0.0
  9
$PUCSORTHOREF
  2

  9
$PUCSORTHOVIEW
 70
     0
  9
$PUCSORGTOP
 10
0.0
 20
0.0
 30
0.0
  9
$PUCSORGBOTTOM
 10
0.0
 20
0.0
 30
0.0
  9
$PUCSORGLEFT
 10
0.0
 20
0.0
 30
0.0
  9
$PUCSORGRIGHT
 10
0.0
 20
0.0
 30
0.0
  9
$PUCSORGFRONT
 10
0.0
 20
0.0
 30
0.0
  9
$PUCSORGBACK
 10
0.0
 20
0.0
 30
0.0
  9
$USERI1
 70
     0
  9
$USERI2
 70
     0
  9
$USERI3
 70
     0
  9
$USERI4
 70
     0
  9
$USERI5
 70
     0
  9
$USERR1
 40
18.1
  9
$USERR2
 40
0.0
  9
$USERR3
 40
0.0
  9
$USERR4
 40
0.0
  9
$USERR5
 40
0.0
  9
$WORLDVIEW
 70
     1
  9
$SHADEDGE
 70
     3
  9
$SHADEDIF
 70
    70
  9
$TILEMODE
 70
     1
  9
$MAXACTVP
 70
    64
  9
$PINSBASE
 10
0.0
 20
0.0
 30
0.0
  9
$PLIMCHECK
 70
     0
  9
$PEXTMIN
 10
1.00000000000000E+20
 20
1.00000000000000E+20
 30
1.00000000000000E+20
  9
$PEXTMAX
 10
-1.00000000000000E+20
 20
-1.00000000000000E+20
 30
-1.00000000000000E+20
  9
$PLIMMIN
 10
0.0
 20
0.0
  9
$PLIMMAX
 10
12.0
 20
9.0
  9
$UNITMODE
 70
     0
  9
$VISRETAIN
 70
     1
  9
$PLINEGEN
 70
     0
  9
$PSLTSCALE
 70
     1
  9
$TREEDEPTH
 70
  3020
  9
$CMLSTYLE
  2
Standard
  9
$CMLJUST
 70
     0
  9
$CMLSCALE
 40
1.0
  9
$PROXYGRAPHICS
 70
     1
  9
$MEASUREMENT
 70
     1
  9
$CELWEIGHT
370
    -1
  9
$ENDCAPS
280
     0
  9
$JOINSTYLE
280
     0
  9
$LWDISPLAY
290
     0
  9
$INSUNITS
 70
     4
  9
$HYPERLINKBASE
  1

  9
$STYLESHEET
  1

  9
$XEDIT
290
     1
  9
$CEPSNTYPE
380
     0
  9
$PSTYLEMODE
290
     1
  9
$FINGERPRINTGUID
  2
{3693B54A-3DC5-412A-B7E0-C16B434C487F}
  9
$VERSIONGUID
  2
{FAEB1C32-E019-11D5-929B-00C0DF256EC4}
  9
$EXTNAMES
290
     1
  9
$PSVPSCALE
 40
0.0
  9
$OLESTARTUP
290
     0
  0
ENDSEC
  0
SECTION
  2
CLASSES
  0
CLASS
  1
ACDBDICTIONARYWDFLT
  2
AcDbDictionaryWithDefault
  3
ObjectDBX Classes
 90
        0
280
     0
281
     0
  0
CLASS
  1
VISUALSTYLE
  2
AcDbVisualStyle
  3
ObjectDBX Classes
 90
     4095
280
     0
281
     0
  0
CLASS
  1
MATERIAL
  2
AcDbMaterial
  3
ObjectDBX Classes
 90
     1153
280
     0
281
     0
  0
CLASS
  1
DICTIONARYVAR
  2
AcDbDictionaryVar
  3
ObjectDBX Classes
 90
        0
280
     0
281
     0
  0
CLASS
  1
ACDBPLACEHOLDER
  2
AcDbPlaceHolder
  3
ObjectDBX Classes
 90
        0
280
     0
281
     0
  0
CLASS
  1
LAYOUT
  2
AcDbLayout
  3
ObjectDBX Classes
 90
        0
280
     0
281
     0
  0
ENDSEC
  0
SECTION
  2
TABLES
  0
TABLE
  2
VPORT
  5
8
330
0
100
AcDbSymbolTable
 70
     1
  0
VPORT
  5
29
330
8
100
AcDbSymbolTableRecord
100
AcDbViewportTableRecord
  2
*Active
 70
     0
 10
0.0
 20
0.0
 11
1.0
 21
1.0
 12
297.0000000000002
 22
210.0000000000001
 13
0.0
 23
0.0
 14
0.5
 24
0.5
 15
0.5
 25
0.5
 16
0.0
 26
0.0
 36
1.0
 17
0.0
 27
0.0
 37
0.0
 40
462.0000000000003
 41
1.60267857142857
 42
50.0
 43
0.0
 44
0.0
 50
0.0
 51
0.0
 71
     0
 72
   100
 73
     1
 74
     3
 75
     0
 76
     0
 77
     0
 78
     0
281
     0
 65
     1
110
0.0
120
0.0
130
0.0
111
1.0
121
0.0
131
0.0
112
0.0
122
1.0
132
0.0
 79
     0
146
0.0
  0
ENDTAB
  0
TABLE
  2
LTYPE
  5
5
330
0
100
AcDbSymbolTable
 70
     8
  0
LTYPE
  5
14
330
5
100
AcDbSymbolTableRecord
100
AcDbLinetypeTableRecord
  2
ByBlock
 70
     0
  3

 72
    65
 73
     0
 40
0.0
  0
LTYPE
  5
15
330
5
100
AcDbSymbolTableRecord
100
AcDbLinetypeTableRecord
  2
ByLayer
 70
     0
  3

 72
    65
 73
     0
 40
0.0
  0
LTYPE
  5
16
330
5
100
AcDbSymbolTableRecord
100
AcDbLinetypeTableRecord
  2
Continuous
 70
     0
  3
Solid line
 72
    65
 73
     0
 40
0.0
  0
LTYPE
  5
3F
330
5
100
AcDbSymbolTableRecord
100
AcDbLinetypeTableRecord
  2
DASHED
 70
     0
  3
Dashed
 72
    65
 73
     2
 40
15.0
 49
7.0
 74
     0
 49
-8.0
 74
     0
  0
LTYPE
  5
40
330
5
100
AcDbSymbolTableRecord
100
AcDbLinetypeTableRecord
  2
DOTTED
 70
     0
  3
Dotted
 72
    65
 73
     2
 40
1.0
 49
0.0
 74
     0
 49
-1.0
 74
     0
  0
LTYPE
  5
41
330
5
100
AcDbSymbolTableRecord
100
AcDbLinetypeTableRecord
  2
DOT_CENTER
 70
     0
  3
Dot_Center
 72
    65
 73
     4
 40
14.0
 49
12.0
 74
     0
 49
-1.0
 74
     0
 49
0.0
 74
     0
 49
-1.0
 74
     0
  0
LTYPE
  5
42
330
5
100
AcDbSymbolTableRecord
100
AcDbLinetypeTableRecord
  2
LONG_DASHED
 70
     0
  3
Long_Dashed
 72
    65
 73
     2
 40
15.0
 49
10.0
 74
     0
 49
-5.0
 74
     0
  0
LTYPE
  5
43
330
5
100
AcDbSymbolTableRecord
100
AcDbLinetypeTableRecord
  2
DASH_CENTER
 70
     0
  3
Dash_Center
 72
    65
 73
     4
 40
14.0
 49
11.0
 74
     0
 49
-1.0
 74
     0
 49
1.0
 74
     0
 49
-1.0
 74
     0
  0
LTYPE
  5
44
330
5
100
AcDbSymbolTableRecord
100
AcDbLinetypeTableRecord
  2
PHANTOM
 70
     0
  3
Phantom
 72
    65
 73
     6
 40
13.0
 49
10.0
 74
     0
 49
-1.0
 74
     0
 49
0.0
 74
     0
 49
-1.0
 74
     0
 49
0.0
 74
     0
 49
-1.0
 74
     0
  0
LTYPE
  5
45
330
5
100
AcDbSymbolTableRecord
100
AcDbLinetypeTableRecord
  2
CENTER_DASH_DASH
 70
     0
  3
Center_Dash_Dash
 72
    65
 73
     6
 40
14.0
 49
9.0
 74
     0
 49
-1.0
 74
     0
 49
1.0
 74
     0
 49
-1.0
 74
     0
 49
1.0
 74
     0
 49
-1.0
 74
     0
  0
ENDTAB
  0
TABLE
  2
LAYER
  5
2
330
0
100
AcDbSymbolTable
 70
     8
  0
LAYER
  5
10
330
2
100
AcDbSymbolTableRecord
100
AcDbLayerTableRecord
  2
0
 70
     0
 62
     7
  6
Continuous
370
    -3
390
F
  0
LAYER
  5
46
330
2
100
AcDbSymbolTableRecord
100
AcDbLayerTableRecord
  2
1
 70
     0
 62
     7
  6
Continuous
370
    -3
390
F
  0
LAYER
  5
47
330
2
100
AcDbSymbolTableRecord
100
AcDbLayerTableRecord
  2
Bemaßungen_TC_020513_DIN_
 70
     0
 62
     7
  6
Continuous
370
    -3
390
F
  0
LAYER
  5
48
330
2
100
AcDbSymbolTableRecord
100
AcDbLayerTableRecord
  2
Mittellinie_TC_020513_DIN_
 70
     0
 62
     7
  6
Continuous
370
    -3
390
F
  0
LAYER
  5
49
330
2
100
AcDbSymbolTableRecord
100
AcDbLayerTableRecord
  2
Mittelpunktmarkierung_TC_020513_DIN_
 70
     0
 62
     7
  6
Continuous
370
    -3
390
F
  0
LAYER
  5
4A
330
2
100
AcDbSymbolTableRecord
100
AcDbLayerTableRecord
  2
Sichtbare_Kanten_TC_020513_DIN_
 70
     0
 62
     7
  6
Continuous
370
    -3
390
F
  0
LAYER
  5
4B
330
2
100
AcDbSymbolTableRecord
100
AcDbLayerTableRecord
  2
Skizziergeometrie_TC_020513_DIN_
 70
     0
 62
     7
  6
Continuous
370
    -3
390
F
  0
LAYER
  5
4C
330
2
100
AcDbSymbolTableRecord
100
AcDbLayerTableRecord
  2
Symbole_TC_020513_DIN_
 70
     0
 62
     7
  6
Continuous
370
    -3
390
F
  0
ENDTAB
  0
TABLE
  2
STYLE
  5
3
330
0
100
AcDbSymbolTable
 70
     4
  0
STYLE
  5
11
330
3
100
AcDbSymbolTableRecord
100
AcDbTextStyleTableRecord
  2
Standard
 70
     0
 40
0.0
 41
1.0
 50
0.0
 71
     0
 42
0.2
  3
txt
  4

  0
STYLE
  5
A1
330
3
100
AcDbSymbolTableRecord
100
AcDbTextStyleTableRecord
  2
CONVERTER_11
 70
     0
 40
0.0
 41
1.2
 50
0.0
 71
     0
 42
0.2
  3
ARIAL.TTF
  4

  0
STYLE
  5
A6
330
3
100
AcDbSymbolTableRecord
100
AcDbTextStyleTableRecord
  2
CONVERTER_12
 70
     0
 40
0.0
 41
1.38
 50
0.0
 71
     0
 42
0.2
  3
ARIAL.TTF
  4

  0
STYLE
  5
29C
330
3
100
AcDbSymbolTableRecord
100
AcDbTextStyleTableRecord
  2
CONVERTER_13
 70
     0
 40
0.0
 41
0.95
 50
0.0
 71
     0
 42
0.2
  3
simplex.shx
  4

  0
ENDTAB
  0
TABLE
  2
VIEW
  5
6
330
0
100
AcDbSymbolTable
 70
     0
  0
ENDTAB
  0
TABLE
  2
UCS
  5
7
330
0
100
AcDbSymbolTable
 70
     0
  0
ENDTAB
  0
TABLE
  2
APPID
  5
9
330
0
100
AcDbSymbolTable
 70
     1
  0
APPID
  5
12
330
9
100
AcDbSymbolTableRecord
100
AcDbRegAppTableRecord
  2
ACAD
 70
     0
  0
ENDTAB
  0
TABLE
  2
DIMSTYLE
  5
A
330
0
100
AcDbSymbolTable
 70
    13
100
AcDbDimStyleTable
  0
DIMSTYLE
105
27
330
A
100
AcDbSymbolTableRecord
100
AcDbDimStyleTableRecord
  2
Standard
 70
     0
178
     0
340
11
  0
DIMSTYLE
105
2A0
102
{ACAD_REACTORS
330
2A1
102
}
330
A
100
AcDbSymbolTableRecord
100
AcDbDimStyleTableRecord
  2
ME10_DIM_10
 70
     0
 41
6.0
 42
1.0
 44
2.0
 73
     0
 74
     0
 77
     1
 78
     8
140
6.0
147
4.0
172
     1
173
     1
174
     1
175
     1
176
     2
177
     2
271
     2
178
     4
271
     2
340
29C
  0
DIMSTYLE
105
2AB
102
{ACAD_REACTORS
330
2AC
102
}
330
A
100
AcDbSymbolTableRecord
100
AcDbDimStyleTableRecord
  2
ME10_DIM_11
 70
     0
 41
6.0
 42
1.0
 44
2.0
 73
     0
 74
     0
 77
     1
 78
     8
140
6.0
147
4.0
172
     1
173
     1
174
     1
175
     1
176
     2
177
     2
271
     2
178
     4
271
     2
340
29C
  0
DIMSTYLE
105
2B6
102
{ACAD_REACTORS
330
2B7
102
}
330
A
100
AcDbSymbolTableRecord
100
AcDbDimStyleTableRecord
  2
ME10_DIM_12
 70
     0
 41
6.0
 42
1.0
 44
2.0
 73
     0
 74
     0
 77
     1
 78
     8
140
6.0
147
4.0
172
     1
173
     1
174
     1
175
     1
176
     2
177
     2
271
     2
178
     4
271
     2
340
29C
  0
DIMSTYLE
105
2C1
102
{ACAD_REACTORS
330
2C2
102
}
330
A
100
AcDbSymbolTableRecord
100
AcDbDimStyleTableRecord
  2
ME10_DIM_13
 70
     0
 41
6.0
 42
1.0
 44
2.0
 73
     0
 74
     0
 77
     1
 78
     8
140
6.0
147
4.0
172
     1
173
     1
174
     1
175
     1
176
     2
177
     2
271
     2
178
     4
271
     2
340
29C
  0
DIMSTYLE
105
2CC
102
{ACAD_REACTORS
330
2CD
102
}
330
A
100
AcDbSymbolTableRecord
100
AcDbDimStyleTableRecord
  2
ME10_DIM_14
 70
     0
 41
6.0
 42
1.0
 44
2.0
 73
     0
 74
     0
 77
     1
 78
     8
140
6.0
147
4.0
172
     1
173
     1
174
     1
175
     1
176
     2
177
     2
271
     2
178
     4
271
     2
340
29C
  0
DIMSTYLE
105
2D7
102
{ACAD_REACTORS
330
2D8
102
}
330
A
100
AcDbSymbolTableRecord
100
AcDbDimStyleTableRecord
  2
ME10_DIM_15
 70
     0
 41
6.0
 42
1.0
 44
2.0
 73
     0
 74
     0
 77
     1
 78
     8
140
6.0
147
4.0
172
     1
173
     1
174
     1
175
     1
176
     2
177
     2
271
     2
178
     4
271
     2
340
29C
  0
DIMSTYLE
105
2E2
102
{ACAD_REACTORS
330
2E3
102
}
330
A
100
AcDbSymbolTableRecord
100
AcDbDimStyleTableRecord
  2
ME10_DIM_16
 70
     0
 41
6.0
 42
1.0
 44
2.0
 73
     0
 74
     0
 77
     1
 78
     8
140
6.0
147
4.0
172
     1
173
     1
174
     1
175
     1
176
     2
177
     2
271
     2
178
     4
271
     2
340
29C
  0
DIMSTYLE
105
2ED
102
{ACAD_REACTORS
330
2EE
102
}
330
A
100
AcDbSymbolTableRecord
100
AcDbDimStyleTableRecord
  2
ME10_DIM_17
 70
     0
 41
6.0
 42
1.0
 44
2.0
 73
     0
 74
     0
 77
     1
 78
     8
140
6.0
147
4.0
172
     1
173
     1
174
     1
175
     1
176
     2
177
     2
271
     2
178
     4
271
     2
340
29C
  0
DIMSTYLE
105
2F8
102
{ACAD_REACTORS
330
2F9
102
}
330
A
100
AcDbSymbolTableRecord
100
AcDbDimStyleTableRecord
  2
ME10_DIM_18
 70
     0
 41
6.0
 42
1.0
 44
2.0
 73
     0
 74
     0
 77
     1
 78
     8
140
6.0
147
4.0
172
     1
173
     1
174
     1
175
     1
176
     2
177
     2
271
     2
178
     4
271
     2
340
29C
  0
DIMSTYLE
105
303
102
{ACAD_REACTORS
330
304
102
}
330
A
100
AcDbSymbolTableRecord
100
AcDbDimStyleTableRecord
  2
ME10_DIM_19
 70
     0
 41
6.0
 42
1.0
 44
2.0
 73
     0
 74
     0
 77
     1
 78
     8
140
6.0
147
4.0
172
     1
173
     1
174
     1
175
     1
176
     2
177
     2
271
     2
178
     4
271
     2
340
29C
  0
DIMSTYLE
105
30E
102
{ACAD_REACTORS
330
30F
102
}
330
A
100
AcDbSymbolTableRecord
100
AcDbDimStyleTableRecord
  2
ME10_DIM_20
 70
     0
 41
6.0
 42
1.0
 44
2.0
 73
     0
 74
     0
 77
     1
 78
     8
140
6.0
147
4.0
172
     1
173
     1
174
     1
175
     1
176
     2
177
     2
271
     2
178
     4
271
     2
340
29C
  0
DIMSTYLE
105
319
102
{ACAD_REACTORS
330
31A
102
}
330
A
100
AcDbSymbolTableRecord
100
AcDbDimStyleTableRecord
  2
ME10_DIM_21
 70
     0
 41
6.0
 42
1.0
 44
2.0
 73
     0
 74
     0
 77
     1
 78
     8
140
6.0
147
4.0
172
     1
173
     1
174
     1
175
     1
176
     2
177
     2
271
     2
178
     4
271
     2
340
29C
  0
ENDTAB
  0
TABLE
  2
BLOCK_RECORD
  5
1
330
0
100
AcDbSymbolTable
 70
    16
  0
BLOCK_RECORD
  5
1F
330
1
100
AcDbSymbolTableRecord
100
AcDbBlockTableRecord
  2
*Model_Space
340
22
  0
BLOCK_RECORD
  5
1B
330
1
100
AcDbSymbolTableRecord
100
AcDbBlockTableRecord
  2
*Paper_Space
340
1E
  0
BLOCK_RECORD
  5
23
330
1
100
AcDbSymbolTableRecord
100
AcDbBlockTableRecord
  2
*Paper_Space0
340
26
  0
BLOCK_RECORD
  5
4D
330
1
100
AcDbSymbolTableRecord
100
AcDbBlockTableRecord
  2
_formato_A4
340
0
102
{BLKREFS
331
51
102
}
  0
BLOCK_RECORD
  5
50
330
1
100
AcDbSymbolTableRecord
100
AcDbBlockTableRecord
  2
A4_oriz
340
0
102
{BLKREFS
331
54
102
}
  0
BLOCK_RECORD
  5
294
330
1
100
AcDbSymbolTableRecord
100
AcDbBlockTableRecord
  2
*D3
340
0
  0
BLOCK_RECORD
  5
2A2
330
1
100
AcDbSymbolTableRecord
100
AcDbBlockTableRecord
  2
*D4
340
0
  0
BLOCK_RECORD
  5
2AD
330
1
100
AcDbSymbolTableRecord
100
AcDbBlockTableRecord
  2
*D5
340
0
  0
BLOCK_RECORD
  5
2B8
330
1
100
AcDbSymbolTableRecord
100
AcDbBlockTableRecord
  2
*D6
340
0
  0
BLOCK_RECORD
  5
2C3
330
1
100
AcDbSymbolTableRecord
100
AcDbBlockTableRecord
  2
*D7
340
0
  0
BLOCK_RECORD
  5
2CE
330
1
100
AcDbSymbolTableRecord
100
AcDbBlockTableRecord
  2
*D8
340
0
  0
BLOCK_RECORD
  5
2D9
330
1
100
AcDbSymbolTableRecord
100
AcDbBlockTableRecord
  2
*D9
340
0
  0
BLOCK_RECORD
  5
2E4
330
1
100
AcDbSymbolTableRecord
100
AcDbBlockTableRecord
  2
*D10
340
0
  0
BLOCK_RECORD
  5
2EF
330
1
100
AcDbSymbolTableRecord
100
AcDbBlockTableRecord
  2
*D11
340
0
  0
BLOCK_RECORD
  5
2FA
330
1
100
AcDbSymbolTableRecord
100
AcDbBlockTableRecord
  2
*D12
340
0
  0
BLOCK_RECORD
  5
305
330
1
100
AcDbSymbolTableRecord
100
AcDbBlockTableRecord
  2
*D13
340
0
  0
BLOCK_RECORD
  5
310
330
1
100
AcDbSymbolTableRecord
100
AcDbBlockTableRecord
  2
*D14
340
0
  0
BLOCK_RECORD
  5
31B
330
1
100
AcDbSymbolTableRecord
100
AcDbBlockTableRecord
  2
*D15
340
0
102
{BLKREFS
331
323
102
}
  0
ENDTAB
  0
ENDSEC
  0
SECTION
  2
BLOCKS
  0
BLOCK
  5
20
330
1F
100
AcDbEntity
  8
0
100
AcDbBlockBegin
  2
*Model_Space
 70
     0
 10
0.0
 20
0.0
 30
0.0
  3
*Model_Space
  1

  0
ENDBLK
  5
21
330
1F
100
AcDbEntity
  8
0
100
AcDbBlockEnd
  0
BLOCK
  5
1C
330
1B
100
AcDbEntity
 67
     1
  8
0
100
AcDbBlockBegin
  2
*Paper_Space
 70
     0
 10
0.0
 20
0.0
 30
0.0
  3
*Paper_Space
  1

  0
ENDBLK
  5
1D
330
1B
100
AcDbEntity
 67
     1
  8
0
100
AcDbBlockEnd
  0
BLOCK
  5
24
330
23
100
AcDbEntity
  8
0
100
AcDbBlockBegin
  2
*Paper_Space0
 70
     0
 10
0.0
 20
0.0
 30
0.0
  3
*Paper_Space0
  1

  0
ENDBLK
  5
25
330
23
100
AcDbEntity
  8
0
100
AcDbBlockEnd
  0
BLOCK
  5
4E
330
4D
100
AcDbEntity
  8
0
100
AcDbBlockBegin
  2
_formato_A4
 70
     0
 10
297.0000000000002
 20
0.0
 30
0.0
  3
_formato_A4
  1

  0
LINE
  5
55
330
4D
100
AcDbEntity
  8
1
  6
Continuous
 62
     7
100
AcDbLine
 10
108.0000000000001
 20
4.99999999999989
 30
0.0
 11
108.0000000000001
 21
40.0
 31
0.0
  0
LINE
  5
56
330
4D
100
AcDbEntity
  8
1
  6
Continuous
 62
     7
100
AcDbLine
 10
108.0000000000001
 20
20.0
 30
0.0
 11
292.0000000000002
 21
20.0
 31
0.0
  0
LINE
  5
57
330
4D
100
AcDbEntity
  8
1
  6
Continuous
 62
     7
100
AcDbLine
 10
4.99999999999989
 20
189.0
 30
0.0
 11
4.99999999999989
 21
5.0
 31
0.0
  0
LINE
  5
58
330
4D
100
AcDbEntity
  8
1
  6
Continuous
 62
     7
100
AcDbLine
 10
133.0000000000002
 20
35.0
 30
0.0
 11
133.0000000000002
 21
40.0
 31
0.0
  0
LINE
  5
59
330
4D
100
AcDbEntity
  8
1
  6
Continuous
 62
     7
100
AcDbLine
 10
115.0000000000001
 20
35.0
 30
0.0
 11
115.0000000000001
 21
40.0
 31
0.0
  0
LINE
  5
5A
330
4D
100
AcDbEntity
  8
1
  6
Continuous
 62
     7
100
AcDbLine
 10
108.0000000000001
 20
40.0
 30
0.0
 11
292.0000000000002
 21
40.0
 31
0.0
  0
LINE
  5
5B
330
4D
100
AcDbEntity
  8
1
  6
Continuous
 62
     7
100
AcDbLine
 10
133.0000000000002
 20
30.0
 30
0.0
 11
133.0000000000002
 21
35.0
 31
0.0
  0
LINE
  5
5C
330
4D
100
AcDbEntity
  8
1
  6
Continuous
 62
     7
100
AcDbLine
 10
115.0000000000001
 20
30.0
 30
0.0
 11
115.0000000000001
 21
35.0
 31
0.0
  0
LINE
  5
5D
330
4D
100
AcDbEntity
  8
1
  6
Continuous
 62
     7
100
AcDbLine
 10
108.0000000000001
 20
35.0
 30
0.0
 11
292.0000000000002
 21
35.0
 31
0.0
  0
LINE
  5
5E
330
4D
100
AcDbEntity
  8
1
  6
Continuous
 62
     7
100
AcDbLine
 10
133.0000000000002
 20
25.0
 30
0.0
 11
133.0000000000002
 21
30.0
 31
0.0
  0
LINE
  5
5F
330
4D
100
AcDbEntity
  8
1
  6
Continuous
 62
     7
100
AcDbLine
 10
115.0000000000001
 20
25.0
 30
0.0
 11
115.0000000000001
 21
30.0
 31
0.0
  0
LINE
  5
60
330
4D
100
AcDbEntity
  8
1
  6
Continuous
 62
     7
100
AcDbLine
 10
108.0000000000001
 20
30.0
 30
0.0
 11
292.0000000000002
 21
30.0
 31
0.0
  0
LINE
  5
61
330
4D
100
AcDbEntity
  8
1
  6
Continuous
 62
     7
100
AcDbLine
 10
133.0000000000002
 20
20.0
 30
0.0
 11
133.0000000000002
 21
25.0
 31
0.0
  0
LINE
  5
62
330
4D
100
AcDbEntity
  8
1
  6
Continuous
 62
     7
100
AcDbLine
 10
115.0000000000001
 20
20.0
 30
0.0
 11
115.0000000000001
 21
25.0
 31
0.0
  0
LINE
  5
63
330
4D
100
AcDbEntity
  8
1
  6
Continuous
 62
     7
100
AcDbLine
 10
108.0000000000001
 20
25.0
 30
0.0
 11
292.0000000000002
 21
25.0
 31
0.0
  0
LINE
  5
64
102
{ACAD_REACTORS
330
AC
102
}
330
4D
100
AcDbEntity
  8
1
  6
Continuous
 62
     7
100
AcDbLine
 10
282.842874839906
 20
10.55800208038033
 30
0.0
 11
281.5095415065727
 21
9.78877131114973
 31
0.0
  0
LINE
  5
65
102
{ACAD_REACTORS
330
AC
102
}
330
4D
100
AcDbEntity
  8
1
  6
Continuous
 62
     7
100
AcDbLine
 10
281.6763006887429
 20
10.65463653264794
 30
0.0
 11
282.5097265375795
 21
11.13545913774624
 31
0.0
  0
LINE
  5
66
102
{ACAD_REACTORS
330
AC
102
}
330
4D
100
AcDbEntity
  8
1
  6
Continuous
 62
     7
100
AcDbLine
 10
281.6763006887429
 20
12.16666666666663
 30
0.0
 11
281.6763006887429
 21
10.65463653264794
 31
0.0
  0
LINE
  5
67
102
{ACAD_REACTORS
330
AC
102
}
330
4D
100
AcDbEntity
  8
1
  6
Continuous
 62
     7
100
AcDbLine
 10
282.6763006887429
 20
12.16666666666663
 30
0.0
 11
281.6763006887429
 21
12.16666666666663
 31
0.0
  0
LINE
  5
68
102
{ACAD_REACTORS
330
AC
102
}
330
4D
100
AcDbEntity
  8
1
  6
Continuous
 62
     7
100
AcDbLine
 10
281.6763006887429
 20
12.83333333333326
 30
0.0
 11
282.6763006887429
 21
12.83333333333326
 31
0.0
  0
LINE
  5
69
102
{ACAD_REACTORS
330
AC
102
}
330
4D
100
AcDbEntity
  8
1
  6
Continuous
 62
     7
100
AcDbLine
 10
281.6763006887429
 20
14.34536346735195
 30
0.0
 11
281.6763006887429
 21
12.83333333333326
 31
0.0
  0
LINE
  5
6A
102
{ACAD_REACTORS
330
AC
102
}
330
4D
100
AcDbEntity
  8
1
  6
Continuous
 62
     7
100
AcDbLine
 10
282.5097265375795
 20
13.86454086225376
 30
0.0
 11
281.6763006887429
 21
14.34536346735195
 31
0.0
  0
LINE
  5
6B
102
{ACAD_REACTORS
330
AC
102
}
330
4D
100
AcDbEntity
  8
1
  6
Continuous
 62
     7
100
AcDbLine
 10
281.5095415065727
 20
15.21122868885027
 30
0.0
 11
282.842874839906
 21
14.44199791961944
 31
0.0
  0
LINE
  5
6C
102
{ACAD_REACTORS
330
AD
102
}
330
4D
100
AcDbEntity
  8
1
  6
Continuous
 62
     7
100
AcDbLine
 10
274.3429673554094
 20
10.84673060906323
 30
0.0
 11
274.3429673554094
 21
14.15326939093666
 31
0.0
  0
LINE
  5
6D
102
{ACAD_REACTORS
330
AD
102
}
330
4D
100
AcDbEntity
  8
1
  6
Continuous
 62
     7
100
AcDbLine
 10
275.0096340220761
 20
11.0392519172633
 30
0.0
 11
275.0096340220761
 21
10.84673060906323
 31
0.0
  0
LINE
  5
6E
102
{ACAD_REACTORS
330
AD
102
}
330
4D
100
AcDbEntity
  8
1
  6
Continuous
 62
     7
100
AcDbLine
 10
275.0096340220761
 20
14.15326939093666
 30
0.0
 11
275.0096340220761
 21
11.0392519172633
 31
0.0
  0
LINE
  5
6F
102
{ACAD_REACTORS
330
AE
102
}
330
4D
100
AcDbEntity
  8
1
  6
Continuous
 62
     7
100
AcDbLine
 10
278.1763932042463
 20
8.44261746499581
 30
0.0
 11
276.0098190530832
 21
9.69256409066691
 31
0.0
  0
LINE
  5
70
102
{ACAD_REACTORS
330
AE
102
}
330
4D
100
AcDbEntity
  8
1
  6
Continuous
 62
     7
100
AcDbLine
 10
276.3429673554094
 20
10.2700211480327
 30
0.0
 11
278.5095415065727
 21
9.0200745223616
 31
0.0
  0
LINE
  5
71
102
{ACAD_REACTORS
330
AE
102
}
330
4D
100
AcDbEntity
  8
1
  6
Continuous
 62
     7
100
AcDbLine
 10
276.3429673554094
 20
14.92250016016737
 30
0.0
 11
276.3429673554094
 21
10.2700211480327
 31
0.0
  0
LINE
  5
72
102
{ACAD_REACTORS
330
AE
102
}
330
4D
100
AcDbEntity
  8
1
  6
Continuous
 62
     7
100
AcDbLine
 10
275.6763006887429
 20
10.27002114803258
 30
0.0
 11
275.6763006887429
 21
14.92250016016737
 31
0.0
  0
LINE
  5
73
102
{ACAD_REACTORS
330
AF
102
}
330
4D
100
AcDbEntity
  8
1
  6
Continuous
 62
     7
100
AcDbLine
 10
279.848533671786
 20
15.86370041827229
 30
0.0
 11
278.6763006887429
 21
13.83333333333326
 31
0.0
  0
LINE
  5
74
102
{ACAD_REACTORS
330
AF
102
}
330
4D
100
AcDbEntity
  8
1
  6
Continuous
 62
     7
100
AcDbLine
 10
280.3429673554094
 20
9.3082690706018
 30
0.0
 11
280.3429673554094
 21
15.73121731203457
 31
0.0
  0
LINE
  5
75
102
{ACAD_REACTORS
330
AF
102
}
330
4D
100
AcDbEntity
  8
1
  6
Continuous
 62
     7
100
AcDbLine
 10
279.6763006887429
 20
12.5
 30
0.0
 11
279.6763006887429
 21
9.3082690706018
 31
0.0
  0
LINE
  5
76
102
{ACAD_REACTORS
330
AF
102
}
330
4D
100
AcDbEntity
  8
1
  6
Continuous
 62
     7
100
AcDbLine
 10
277.6763006887429
 20
10.84758507263291
 30
0.0
 11
277.6763006887429
 21
12.5
 31
0.0
  0
LINE
  5
77
102
{ACAD_REACTORS
330
AF
102
}
330
4D
100
AcDbEntity
  8
1
  6
Continuous
 62
     7
100
AcDbLine
 10
277.0096340220761
 20
12.5
 30
0.0
 11
277.0096340220761
 21
10.84758507263291
 31
0.0
  0
LINE
  5
78
102
{ACAD_REACTORS
330
AF
102
}
330
4D
100
AcDbEntity
  8
1
  6
Continuous
 62
     7
100
AcDbLine
 10
277.5040677056995
 20
15.86370041827229
 30
0.0
 11
278.6763006887429
 21
13.83333333333326
 31
0.0
  0
LINE
  5
79
102
{ACAD_REACTORS
330
AF
102
}
330
4D
100
AcDbEntity
  8
1
  6
Continuous
 62
     7
100
AcDbLine
 10
277.0096340220761
 20
12.5
 30
0.0
 11
277.0096340220761
 21
15.73121731203457
 31
0.0
  0
LINE
  5
7A
330
4D
100
AcDbEntity
  8
1
  6
Continuous
 62
     7
100
AcDbLine
 10
278.6763006887429
 20
7.5
 30
0.0
 11
270.2598654136013
 21
12.35563573565855
 31
0.0
  0
LINE
  5
7B
330
4D
100
AcDbEntity
  8
1
  6
Continuous
 62
     7
100
AcDbLine
 10
287.0927359638842
 20
12.35563573565855
 30
0.0
 11
278.6763006887429
 21
7.5
 31
0.0
  0
LINE
  5
7C
330
4D
100
AcDbEntity
  8
1
  6
Continuous
 62
     7
100
AcDbLine
 10
278.6763006887429
 20
17.5
 30
0.0
 11
287.0927359638842
 21
12.64436426434133
 31
0.0
  0
LINE
  5
7D
330
4D
100
AcDbEntity
  8
1
  6
Continuous
 62
     7
100
AcDbLine
 10
270.2598654136013
 20
12.64436426434133
 30
0.0
 11
278.6763006887429
 21
17.5
 31
0.0
  0
LINE
  5
7E
102
{ACAD_REACTORS
330
AF
102
}
330
4D
100
AcDbEntity
  8
1
  6
Continuous
 62
     7
100
AcDbLine
 10
277.6763006887429
 20
14.23205080756884
 30
0.0
 11
277.6763006887429
 21
12.5
 31
0.0
  0
LINE
  5
7F
102
{ACAD_REACTORS
330
AF
102
}
330
4D
100
AcDbEntity
  8
1
  6
Continuous
 62
     7
100
AcDbLine
 10
278.5319631214454
 20
12.75
 30
0.0
 11
277.6763006887429
 21
14.23205080756884
 31
0.0
  0
LINE
  5
80
102
{ACAD_REACTORS
330
AF
102
}
330
4D
100
AcDbEntity
  8
1
  6
Continuous
 62
     7
100
AcDbLine
 10
279.6763006887429
 20
14.23205080756884
 30
0.0
 11
278.8206382560401
 21
12.75
 31
0.0
  0
LINE
  5
81
102
{ACAD_REACTORS
330
AF
102
}
330
4D
100
AcDbEntity
  8
1
  6
Continuous
 62
     7
100
AcDbLine
 10
279.6763006887429
 20
12.5
 30
0.0
 11
279.6763006887429
 21
14.23205080756884
 31
0.0
  0
LINE
  5
82
102
{ACAD_REACTORS
330
AC
102
}
330
4D
100
AcDbEntity
  8
1
  6
Continuous
 62
     7
100
AcDbLine
 10
281.0096340220761
 20
10.07749983983263
 30
0.0
 11
281.0096340220761
 21
14.92250016016737
 31
0.0
  0
LINE
  5
83
330
4D
100
AcDbEntity
  8
1
  6
Continuous
 62
     7
100
AcDbLine
 10
292.0000000000002
 20
189.0
 30
0.0
 11
4.99999999999989
 21
189.0
 31
0.0
  0
LINE
  5
84
330
4D
100
AcDbEntity
  8
1
  6
Continuous
 62
     7
100
AcDbLine
 10
292.0000000000002
 20
5.0
 30
0.0
 11
292.0000000000002
 21
189.0
 31
0.0
  0
LINE
  5
85
330
4D
100
AcDbEntity
  8
1
  6
Continuous
 62
     7
100
AcDbLine
 10
4.99999999999989
 20
5.0
 30
0.0
 11
292.0000000000002
 21
5.0
 31
0.0
  0
LINE
  5
86
330
4D
100
AcDbEntity
  8
1
  6
Continuous
 62
     7
100
AcDbLine
 10
297.0000000000002
 20
0.0
 30
0.0
 11
297.0000000000002
 21
210.0000000000001
 31
0.0
  0
LINE
  5
87
330
4D
100
AcDbEntity
  8
1
  6
Continuous
 62
     7
100
AcDbLine
 10
297.0000000000002
 20
210.0000000000001
 30
0.0
 11
0.0
 21
210.0000000000001
 31
0.0
  0
LINE
  5
88
330
4D
100
AcDbEntity
  8
1
  6
Continuous
 62
     7
100
AcDbLine
 10
0.0
 20
210.0000000000001
 30
0.0
 11
0.0
 21
0.0
 31
0.0
  0
LINE
  5
89
330
4D
100
AcDbEntity
  8
1
  6
Continuous
 62
     7
100
AcDbLine
 10
0.0
 20
0.0
 30
0.0
 11
297.0000000000002
 21
0.0
 31
0.0
  0
LINE
  5
8A
330
4D
100
AcDbEntity
  8
1
  6
Continuous
 62
     7
100
AcDbLine
 10
148.4999999999998
 20
210.0000000000001
 30
0.0
 11
148.4999999999998
 21
195.0000000000001
 31
0.0
  0
LINE
  5
8B
330
4D
100
AcDbEntity
  8
1
  6
Continuous
 62
     7
100
AcDbLine
 10
138.0000000000001
 20
20.0
 30
0.0
 11
138.0000000000001
 21
5.0
 31
0.0
  0
LINE
  5
8C
330
4D
100
AcDbEntity
  8
1
  6
Continuous
 62
     7
100
AcDbLine
 10
265.3526013774855
 20
20.0
 30
0.0
 11
265.3526013774855
 21
5.0
 31
0.0
  0
LINE
  5
8D
330
4D
100
AcDbEntity
  8
1
  6
Continuous
 62
     7
100
AcDbLine
 10
248.0000000000002
 20
20.0
 30
0.0
 11
248.0000000000002
 21
5.0
 31
0.0
  0
LINE
  5
8E
330
4D
100
AcDbEntity
  8
1
  6
Continuous
 62
     7
100
AcDbLine
 10
108.0000000000001
 20
14.99999999999989
 30
0.0
 11
138.0000000000001
 21
14.99999999999989
 31
0.0
  0
LINE
  5
8F
330
4D
100
AcDbEntity
  8
1
  6
Continuous
 62
     7
100
AcDbLine
 10
108.0000000000001
 20
9.99999999999986
 30
0.0
 11
138.0000000000001
 21
9.99999999999986
 31
0.0
  0
ARC
  5
90
102
{ACAD_REACTORS
330
AC
102
}
330
4D
100
AcDbEntity
  8
1
  6
Continuous
 62
     7
100
AcDbCircle
 10
282.6763006887429
 20
10.84673060906323
 30
0.0
 40
0.3333333333333172
100
AcDbArc
 50
299.9816393688334
 51
119.9816393688661
  0
ARC
  5
91
102
{ACAD_REACTORS
330
AC
102
}
330
4D
100
AcDbEntity
  8
1
  6
Continuous
 62
     7
100
AcDbCircle
 10
282.6763006887429
 20
12.5
 30
0.0
 40
0.3333333333333695
100
AcDbArc
 50
270.0
 51
90.0
  0
ARC
  5
92
102
{ACAD_REACTORS
330
AC
102
}
330
4D
100
AcDbEntity
  8
1
  6
Continuous
 62
     7
100
AcDbCircle
 10
282.6763006887429
 20
14.15326939093666
 30
0.0
 40
0.3333333333334607
100
AcDbArc
 50
240.0183606311244
 51
60.01836063115638
  0
ARC
  5
93
102
{ACAD_REACTORS
330
AD
102
}
330
4D
100
AcDbEntity
  8
1
  6
Continuous
 62
     7
100
AcDbCircle
 10
274.6763006887429
 20
10.84673060906323
 30
0.0
 40
0.3333333333334849
100
AcDbArc
 50
180.0
 51
0.0
  0
ARC
  5
94
102
{ACAD_REACTORS
330
AD
102
}
330
4D
100
AcDbEntity
  8
1
  6
Continuous
 62
     7
100
AcDbCircle
 10
274.6763006887429
 20
14.15326939093666
 30
0.0
 40
0.3333333333332007
100
AcDbArc
 50
0.0
 51
180.0
  0
ARC
  5
95
102
{ACAD_REACTORS
330
AE
102
}
330
4D
100
AcDbEntity
  8
1
  6
Continuous
 62
     7
100
AcDbCircle
 10
278.3429673554094
 20
8.7313459936787
 30
0.0
 40
0.3333333333333141
100
AcDbArc
 50
240.0183606311663
 51
60.01836063114089
  0
ARC
  5
96
102
{ACAD_REACTORS
330
AE
102
}
330
4D
100
AcDbEntity
  8
1
  6
Continuous
 62
     7
100
AcDbCircle
 10
276.0096340220761
 20
14.92250016016737
 30
0.0
 40
0.3333333333333144
100
AcDbArc
 50
0.0
 51
180.0
  0
ARC
  5
97
102
{ACAD_REACTORS
330
AF
102
}
330
4D
100
AcDbEntity
  8
1
  6
Continuous
 62
     7
100
AcDbCircle
 10
280.0780011429342
 20
15.73121731203457
 30
0.0
 40
0.2649662124752012
100
AcDbArc
 50
0.0
 51
149.9999999999931
  0
ARC
  5
98
102
{ACAD_REACTORS
330
AF
102
}
330
4D
100
AcDbEntity
  8
1
  6
Continuous
 62
     7
100
AcDbCircle
 10
280.0096340220761
 20
9.3082690706018
 30
0.0
 40
0.3333333333332007
100
AcDbArc
 50
180.0
 51
0.0
  0
ARC
  5
99
102
{ACAD_REACTORS
330
AF
102
}
330
4D
100
AcDbEntity
  8
1
  6
Continuous
 62
     7
100
AcDbCircle
 10
277.3429673554094
 20
10.84758507263291
 30
0.0
 40
0.3333333333333144
100
AcDbArc
 50
180.0
 51
0.0
  0
ARC
  5
9A
102
{ACAD_REACTORS
330
AF
102
}
330
4D
100
AcDbEntity
  8
1
  6
Continuous
 62
     7
100
AcDbCircle
 10
277.2746002345513
 20
15.73121731203457
 30
0.0
 40
0.2649662124753838
100
AcDbArc
 50
30.00000000000692
 51
180.0
  0
ARC
  5
9B
102
{ACAD_REACTORS
330
AC
102
}
330
4D
100
AcDbEntity
  8
1
  6
Continuous
 62
     7
100
AcDbCircle
 10
281.3429673554094
 20
10.07749983983263
 30
0.0
 40
0.3333333333333144
100
AcDbArc
 50
180.0
 51
299.9816393688591
  0
ARC
  5
9C
102
{ACAD_REACTORS
330
AC
102
}
330
4D
100
AcDbEntity
  8
1
  6
Continuous
 62
     7
100
AcDbCircle
 10
281.3429673554094
 20
14.92250016016737
 30
0.0
 40
0.3333333333334024
100
AcDbArc
 50
60.01836063114121
 51
180.0
  0
ARC
  5
9D
330
4D
100
AcDbEntity
  8
1
  6
Continuous
 62
     7
100
AcDbCircle
 10
287.0094488883028
 20
12.5
 30
0.0
 40
0.1666666666665734
100
AcDbArc
 50
299.9816393687826
 51
60.01836063119693
  0
ARC
  5
9E
330
4D
100
AcDbEntity
  8
1
  6
Continuous
 62
     7
100
AcDbCircle
 10
270.343152489183
 20
12.5
 30
0.0
 40
0.1666666666666407
100
AcDbArc
 50
119.9816393689046
 51
240.0183606311158
  0
ARC
  5
9F
102
{ACAD_REACTORS
330
AE
102
}
330
4D
100
AcDbEntity
  8
1
  6
Continuous
 62
     7
100
AcDbCircle
 10
276.3429673554094
 20
10.2700211480327
 30
0.0
 40
0.6666666666665151
100
AcDbArc
 50
180.0000000000104
 51
240.0183606311663
  0
ARC
  5
A0
102
{ACAD_REACTORS
330
AF
102
}
330
4D
100
AcDbEntity
  8
1
  6
Continuous
 62
     7
100
AcDbCircle
 10
278.6763006887429
 20
12.83333333333326
 30
0.0
 40
0.166666666666709
100
AcDbArc
 50
209.9999999999622
 51
329.999999999989
  0
MTEXT
  5
A2
330
4D
100
AcDbEntity
  8
1
 62
     7
100
AcDbMText
 10
256.6763006887429
 20
10.06063942075605
 30
0.0
 40
4.5
 41
0.0
 71
     5
 72
     1
  1
1:2
  7
CONVERTER_11
 73
     1
 44
1.32052821128451
  0
MTEXT
  5
A3
330
4D
100
AcDbEntity
  8
1
 62
     7
100
AcDbMText
 10
256.6763006887429
 20
16.26063942075598
 30
0.0
 40
3.0
 41
0.0
 71
     5
 72
     1
  1
Scale
  7
CONVERTER_11
 73
     1
 44
1.32052821128451
  0
MTEXT
  5
A4
330
4D
100
AcDbEntity
  8
1
 62
     7
100
AcDbMText
 10
144.2763006887428
 20
12.5
 30
0.0
 40
4.5
 41
0.0
 71
     4
 72
     1
  1
CHIN 10\PBulkhead mounting housing, 2 levers - LS TYPE
  7
CONVERTER_11
 73
     1
 44
0.90036014405762
  0
MTEXT
  5
A5
330
4D
100
AcDbEntity
  8
1
 62
     7
100
AcDbMText
 10
151.4999999999998
 20
194.0000000000001
 30
0.0
 40
4.0
 41
0.0
 71
     5
 72
     1
  1
Diritti riservati      All rights reserved
  7
CONVERTER_11
 73
     1
 44
1.32052821128451
  0
MTEXT
  5
A7
330
4D
100
AcDbEntity
  8
1
 62
     7
100
AcDbMText
 10
123.0000000000001
 20
17.49999999999994
 30
0.0
 40
2.5
 41
0.0
 71
     5
 72
     1
  1
dimensions in mm
  7
CONVERTER_12
 73
     1
 44
0.60024009603842
  0
MTEXT
  5
A8
330
4D
100
AcDbEntity
  8
1
 62
     7
100
AcDbMText
 10
109.0000000000001
 20
12.49999999999987
 30
0.0
 40
3.0
 41
0.0
 71
     4
 72
     1
  1
Date
  7
CONVERTER_11
 73
     1
 44
1.32052821128451
  0
MTEXT
  5
A9
330
4D
100
AcDbEntity
  8
1
 62
     7
100
AcDbMText
 10
119.6000000000001
 20
12.49999999999987
 30
0.0
 40
3.0
 41
0.0
 71
     4
 72
     1
  1
23/06/14
  7
CONVERTER_11
 73
     1
 44
1.32052821128451
  0
MTEXT
  5
AA
330
4D
100
AcDbEntity
  8
1
 62
     7
100
AcDbMText
 10
109.0000000000001
 20
7.49999999999988
 30
0.0
 40
3.0
 41
0.0
 71
     4
 72
     1
  1
Sign.
  7
CONVERTER_11
 73
     1
 44
1.32052821128451
  0
MTEXT
  5
AB
330
4D
100
AcDbEntity
  8
1
 62
     7
100
AcDbMText
 10
119.6000000000001
 20
7.49999999999988
 30
0.0
 40
3.0
 41
0.0
 71
     4
 72
     1
  1
Radice
  7
CONVERTER_11
 73
     1
 44
1.32052821128451
  0
HATCH
  5
AC
330
4D
100
AcDbEntity
  8
1
  6
Continuous
 62
     7
100
AcDbHatch
 10
0.0
 20
0.0
 30
0.0
210
0.0
220
0.0
230
1.0
  2
SOLID
 70
     1
 71
     1
 91
        1
 92
        1
 93
       14
 72
     2
 10
281.3429673554094
 20
14.92250016016737
 40
0.3333333333334024
 50
60.01836063114121
 51
180.0
 73
     1
 72
     1
 10
281.0096340220761
 20
14.92250016016737
 11
281.0096340220761
 21
10.07749983983263
 72
     2
 10
281.3429673554094
 20
10.07749983983263
 40
0.3333333333333144
 50
180.0
 51
299.9816393688591
 73
     1
 72
     1
 10
281.5095415065727
 20
9.788771311149734
 11
282.842874839906
 21
10.55800208038033
 72
     2
 10
282.6763006887429
 20
10.84673060906323
 40
0.3333333333333172
 50
299.9816393688334
 51
479.9816393688661
 73
     1
 72
     1
 10
282.5097265375795
 20
11.13545913774624
 11
281.6763006887429
 21
10.65463653264794
 72
     1
 10
281.6763006887429
 20
10.65463653264794
 11
281.6763006887429
 21
12.16666666666663
 72
     1
 10
281.6763006887429
 20
12.16666666666663
 11
282.6763006887429
 21
12.16666666666663
 72
     2
 10
282.6763006887429
 20
12.5
 40
0.3333333333333695
 50
270.0
 51
450.0
 73
     1
 72
     1
 10
282.6763006887429
 20
12.83333333333326
 11
281.6763006887429
 21
12.83333333333326
 72
     1
 10
281.6763006887429
 20
12.83333333333326
 11
281.6763006887429
 21
14.34536346735195
 72
     1
 10
281.6763006887429
 20
14.34536346735195
 11
282.5097265375795
 21
13.86454086225376
 72
     2
 10
282.6763006887429
 20
14.15326939093666
 40
0.3333333333334607
 50
240.0183606311244
 51
420.0183606311564
 73
     1
 72
     1
 10
282.842874839906
 20
14.44199791961944
 11
281.5095415065727
 21
15.21122868885027
 97
       14
330
92
330
6A
330
69
330
68
330
91
330
67
330
66
330
65
330
90
330
64
330
9B
330
82
330
9C
330
6B
 75
     0
 76
     1
 98
        1
 10
0.0
 20
0.0
  0
HATCH
  5
AD
330
4D
100
AcDbEntity
  8
1
  6
Continuous
 62
     7
100
AcDbHatch
 10
0.0
 20
0.0
 30
0.0
210
0.0
220
0.0
230
1.0
  2
SOLID
 70
     1
 71
     1
 91
        1
 92
        1
 93
        5
 72
     2
 10
274.6763006887429
 20
14.15326939093666
 40
0.3333333333332007
 50
0.0
 51
180.0
 73
     1
 72
     1
 10
274.3429673554094
 20
14.15326939093666
 11
274.3429673554094
 21
10.84673060906323
 72
     2
 10
274.6763006887429
 20
10.84673060906323
 40
0.3333333333334849
 50
180.0
 51
360.0
 73
     1
 72
     1
 10
275.0096340220761
 20
10.84673060906323
 11
275.0096340220761
 21
11.0392519172633
 72
     1
 10
275.0096340220761
 20
11.0392519172633
 11
275.0096340220761
 21
14.15326939093666
 97
        5
330
94
330
6C
330
93
330
6D
330
6E
 75
     0
 76
     1
 98
        1
 10
0.0
 20
0.0
  0
HATCH
  5
AE
330
4D
100
AcDbEntity
  8
1
  6
Continuous
 62
     7
100
AcDbHatch
 10
0.0
 20
0.0
 30
0.0
210
0.0
220
0.0
230
1.0
  2
SOLID
 70
     1
 71
     1
 91
        1
 92
        1
 93
        7
 72
     2
 10
276.0096340220761
 20
14.92250016016737
 40
0.3333333333333144
 50
0.0
 51
180.0
 73
     1
 72
     1
 10
275.6763006887429
 20
14.92250016016737
 11
275.6763006887429
 21
10.27002114803258
 72
     2
 10
276.3429673554094
 20
10.2700211480327
 40
0.6666666666665151
 50
180.0000000000104
 51
240.0183606311663
 73
     1
 72
     1
 10
276.0098190530832
 20
9.69256409066691
 11
278.1763932042463
 21
8.44261746499581
 72
     2
 10
278.3429673554094
 20
8.731345993678705
 40
0.3333333333333141
 50
240.0183606311663
 51
420.0183606311409
 73
     1
 72
     1
 10
278.5095415065727
 20
9.0200745223616
 11
276.3429673554094
 21
10.2700211480327
 72
     1
 10
276.3429673554094
 20
10.2700211480327
 11
276.3429673554094
 21
14.92250016016737
 97
        7
330
96
330
72
330
9F
330
6F
330
95
330
70
330
71
 75
     0
 76
     1
 98
        1
 10
0.0
 20
0.0
  0
HATCH
  5
AF
330
4D
100
AcDbEntity
  8
1
  6
Continuous
 62
     7
100
AcDbHatch
 10
0.0
 20
0.0
 30
0.0
210
0.0
220
0.0
230
1.0
  2
SOLID
 70
     1
 71
     1
 91
        1
 92
        1
 93
       16
 72
     2
 10
280.0780011429342
 20
15.73121731203457
 40
0.2649662124752012
 50
210.0000000000069
 51
360.0
 73
     0
 72
     1
 10
280.3429673554094
 20
15.73121731203457
 11
280.3429673554094
 21
9.3082690706018
 72
     2
 10
280.0096340220761
 20
9.3082690706018
 40
0.3333333333332007
 50
0.0
 51
180.0
 73
     0
 72
     1
 10
279.6763006887429
 20
9.3082690706018
 11
279.6763006887429
 21
12.5
 72
     1
 10
279.6763006887429
 20
12.5
 11
279.6763006887429
 21
14.23205080756884
 72
     1
 10
279.6763006887429
 20
14.23205080756884
 11
278.8206382560401
 21
12.75
 72
     2
 10
278.6763006887429
 20
12.83333333333326
 40
0.166666666666709
 50
30.00000000001106
 51
150.0000000000378
 73
     0
 72
     1
 10
278.5319631214454
 20
12.75
 11
277.6763006887429
 21
14.23205080756884
 72
     1
 10
277.6763006887429
 20
14.23205080756884
 11
277.6763006887429
 21
12.5
 72
     1
 10
277.6763006887429
 20
12.5
 11
277.6763006887429
 21
10.84758507263291
 72
     2
 10
277.3429673554094
 20
10.84758507263291
 40
0.3333333333333144
 50
0.0
 51
180.0
 73
     0
 72
     1
 10
277.0096340220761
 20
10.84758507263291
 11
277.0096340220761
 21
12.5
 72
     1
 10
277.0096340220761
 20
12.5
 11
277.0096340220761
 21
15.73121731203457
 72
     2
 10
277.2746002345513
 20
15.73121731203457
 40
0.2649662124753838
 50
180.0
 51
329.9999999999931
 73
     0
 72
     1
 10
277.5040677056995
 20
15.86370041827229
 11
278.6763006887429
 21
13.83333333333326
 72
     1
 10
278.6763006887429
 20
13.83333333333326
 11
279.848533671786
 21
15.86370041827229
 97
       16
330
78
330
9A
330
79
330
77
330
99
330
76
330
7E
330
7F
330
A0
330
80
330
81
330
75
330
98
330
74
330
97
330
73
 75
     0
 76
     1
 98
        1
 10
0.0
 20
0.0
  0
ENDBLK
  5
4F
330
4D
100
AcDbEntity
  8
0
100
AcDbBlockEnd
  0
BLOCK
  5
52
330
50
100
AcDbEntity
  8
0
100
AcDbBlockBegin
  2
A4_oriz
 70
     0
 10
594.0000000000003
 20
0.0
 30
0.0
  3
A4_oriz
  1

  0
INSERT
  5
51
330
50
100
AcDbEntity
  8
1
100
AcDbBlockReference
  2
_formato_A4
 10
594.0000000000005
 20
0.0
 30
0.0
 41
2.0
 42
2.0
 43
2.0
  0
ENDBLK
  5
53
330
50
100
AcDbEntity
  8
0
100
AcDbBlockEnd
  0
BLOCK
  5
29E
330
294
100
AcDbEntity
  8
0
100
AcDbBlockBegin
  2
*D3
 70
     1
 10
0.0
 20
0.0
 30
0.0
  3
*D3
  1

  0
LINE
  5
295
330
294
100
AcDbEntity
  8
1
  6
Continuous
 62
     2
100
AcDbLine
 10
530.9776300529269
 20
189.2069106140441
 30
0.0
 11
530.9776300529269
 21
177.178196910299
 31
0.0
  0
LINE
  5
296
330
294
100
AcDbEntity
  8
1
  6
Continuous
 62
     2
100
AcDbLine
 10
530.9776300529269
 20
177.178196910299
 30
0.0
 11
530.9776300529269
 21
171.178196910299
 31
0.0
  0
LINE
  5
297
330
294
100
AcDbEntity
  8
1
  6
Continuous
 62
     2
100
AcDbLine
 10
530.9776300529269
 20
171.178196910299
 30
0.0
 11
530.9776300529269
 21
159.178196910299
 31
0.0
  0
LINE
  5
298
330
294
100
AcDbEntity
  8
1
  6
Continuous
 62
     2
100
AcDbLine
 10
504.7830936891721
 20
177.178196910299
 30
0.0
 11
532.9776300529269
 21
177.178196910299
 31
0.0
  0
LINE
  5
299
330
294
100
AcDbEntity
  8
1
  6
Continuous
 62
     2
100
AcDbLine
 10
505.7276300529289
 20
171.178196910299
 30
0.0
 11
532.9776300529269
 21
171.178196910299
 31
0.0
  0
SOLID
  5
29A
330
294
100
AcDbEntity
  8
1
 62
     2
100
AcDbTrace
 10
530.1877150674026
 20
183.178196910299
 30
0.0
 11
531.7675450384512
 21
183.178196910299
 31
0.0
 12
530.9776300529269
 22
177.178196910299
 32
0.0
 13
530.9776300529269
 23
177.178196910299
 33
0.0
  0
SOLID
  5
29B
330
294
100
AcDbEntity
  8
1
 62
     2
100
AcDbTrace
 10
531.7675450384512
 20
165.178196910299
 30
0.0
 11
530.1877150674026
 21
165.178196910299
 31
0.0
 12
530.9776300529269
 22
171.178196910299
 32
0.0
 13
530.9776300529269
 23
171.178196910299
 33
0.0
  0
MTEXT
  5
29D
330
294
100
AcDbEntity
  8
1
 62
     4
100
AcDbMText
 10
526.9776300529269
 20
185.6069106140441
 30
0.0
 40
6.0
 41
0.0
 71
     7
 72
     1
  1
6
  7
CONVERTER_13
 11
0.0
 21
1.0
 31
0.0
 73
     1
 44
0.60024009603842
  0
ENDBLK
  5
29F
330
294
100
AcDbEntity
  8
0
100
AcDbBlockEnd
  0
BLOCK
  5
2A9
330
2A2
100
AcDbEntity
  8
0
100
AcDbBlockBegin
  2
*D4
 70
     1
 10
0.0
 20
0.0
 30
0.0
  3
*D4
  1

  0
LINE
  5
2A3
330
2A2
100
AcDbEntity
  8
1
  6
Continuous
 62
     2
100
AcDbLine
 10
240.2505775669296
 20
171.178196910299
 30
0.0
 11
240.2505775669296
 21
200.178196910299
 31
0.0
  0
LINE
  5
2A4
330
2A2
100
AcDbEntity
  8
1
  6
Continuous
 62
     2
100
AcDbLine
 10
266.6689399535034
 20
200.178196910299
 30
0.0
 11
238.2505775669296
 21
200.178196910299
 31
0.0
  0
LINE
  5
2A5
330
2A2
100
AcDbEntity
  8
1
  6
Continuous
 62
     2
100
AcDbLine
 10
258.9987162863899
 20
171.178196910299
 30
0.0
 11
238.2505775669296
 21
171.178196910299
 31
0.0
  0
SOLID
  5
2A6
330
2A2
100
AcDbEntity
  8
1
 62
     2
100
AcDbTrace
 10
239.4606625814052
 20
177.178196910299
 30
0.0
 11
241.040492552454
 21
177.178196910299
 31
0.0
 12
240.2505775669296
 22
171.178196910299
 32
0.0
 13
240.2505775669296
 23
171.178196910299
 33
0.0
  0
SOLID
  5
2A7
330
2A2
100
AcDbEntity
  8
1
 62
     2
100
AcDbTrace
 10
241.040492552454
 20
194.178196910299
 30
0.0
 11
239.4606625814052
 21
194.178196910299
 31
0.0
 12
240.2505775669296
 22
200.178196910299
 32
0.0
 13
240.2505775669296
 23
200.178196910299
 33
0.0
  0
MTEXT
  5
2A8
330
2A2
100
AcDbEntity
  8
1
 62
     4
100
AcDbMText
 10
236.2505775669296
 20
181.178196910299
 30
0.0
 40
6.0
 41
0.0
 71
     7
 72
     1
  1
29
  7
CONVERTER_13
 11
0.0
 21
1.0
 31
0.0
 73
     1
 44
0.60024009603842
  0
ENDBLK
  5
2AA
330
2A2
100
AcDbEntity
  8
0
100
AcDbBlockEnd
  0
BLOCK
  5
2B4
330
2AD
100
AcDbEntity
  8
0
100
AcDbBlockBegin
  2
*D5
 70
     1
 10
0.0
 20
0.0
 30
0.0
  3
*D5
  1

  0
LINE
  5
2AE
330
2AD
100
AcDbEntity
  8
1
  6
Continuous
 62
     2
100
AcDbLine
 10
252.9987162863899
 20
235.6781969102944
 30
0.0
 11
362.4987162863899
 21
235.6781969102944
 31
0.0
  0
LINE
  5
2AF
330
2AD
100
AcDbEntity
  8
1
  6
Continuous
 62
     2
100
AcDbLine
 10
362.4987162863899
 20
191.6781969102965
 30
0.0
 11
362.4987162863899
 21
237.6781969102944
 31
0.0
  0
LINE
  5
2B0
330
2AD
100
AcDbEntity
  8
1
  6
Continuous
 62
     2
100
AcDbLine
 10
252.9987162863899
 20
191.6781969102965
 30
0.0
 11
252.9987162863899
 21
237.6781969102944
 31
0.0
  0
SOLID
  5
2B1
330
2AD
100
AcDbEntity
  8
1
 62
     2
100
AcDbTrace
 10
258.9987162863899
 20
236.4681118958188
 30
0.0
 11
258.9987162863899
 21
234.88828192477
 31
0.0
 12
252.9987162863899
 22
235.6781969102944
 32
0.0
 13
252.9987162863899
 23
235.6781969102944
 33
0.0
  0
SOLID
  5
2B2
330
2AD
100
AcDbEntity
  8
1
 62
     2
100
AcDbTrace
 10
356.4987162863899
 20
234.88828192477
 30
0.0
 11
356.4987162863899
 21
236.4681118958188
 31
0.0
 12
362.4987162863899
 22
235.6781969102944
 32
0.0
 13
362.4987162863899
 23
235.6781969102944
 33
0.0
  0
MTEXT
  5
2B3
330
2AD
100
AcDbEntity
  8
1
 62
     4
100
AcDbMText
 10
297.6987162863899
 20
240.2781969102944
 30
0.0
 40
6.0
 41
0.0
 71
     7
 72
     1
  1
109,5
  7
CONVERTER_13
 11
0.9999999999970619
 21
2.424068405545306E-6
 31
0.0
 73
     1
 44
0.60024009603842
  0
ENDBLK
  5
2B5
330
2AD
100
AcDbEntity
  8
0
100
AcDbBlockEnd
  0
BLOCK
  5
2BF
330
2B8
100
AcDbEntity
  8
0
100
AcDbBlockBegin
  2
*D6
 70
     1
 10
0.0
 20
0.0
 30
0.0
  3
*D6
  1

  0
LINE
  5
2B9
330
2B8
100
AcDbEntity
  8
1
  6
Continuous
 62
     2
100
AcDbLine
 10
459.2276300529289
 20
131.178196910299
 30
0.0
 11
504.7276300529289
 21
131.178196910299
 31
0.0
  0
LINE
  5
2BA
330
2B8
100
AcDbEntity
  8
1
  6
Continuous
 62
     2
100
AcDbLine
 10
459.2276300529289
 20
170.1781969102991
 30
0.0
 11
459.2276300529289
 21
129.178196910299
 31
0.0
  0
LINE
  5
2BB
330
2B8
100
AcDbEntity
  8
1
  6
Continuous
 62
     2
100
AcDbLine
 10
504.7276300529289
 20
170.1781969102991
 30
0.0
 11
504.7276300529289
 21
129.178196910299
 31
0.0
  0
SOLID
  5
2BC
330
2B8
100
AcDbEntity
  8
1
 62
     2
100
AcDbTrace
 10
465.2276300529289
 20
131.9681118958234
 30
0.0
 11
465.2276300529289
 21
130.3882819247746
 31
0.0
 12
459.2276300529289
 22
131.178196910299
 32
0.0
 13
459.2276300529289
 23
131.178196910299
 33
0.0
  0
SOLID
  5
2BD
330
2B8
100
AcDbEntity
  8
1
 62
     2
100
AcDbTrace
 10
498.7276300529289
 20
130.3882819247746
 30
0.0
 11
498.7276300529289
 21
131.9681118958234
 31
0.0
 12
504.7276300529289
 22
131.178196910299
 32
0.0
 13
504.7276300529289
 23
131.178196910299
 33
0.0
  0
MTEXT
  5
2BE
330
2B8
100
AcDbEntity
  8
1
 62
     4
100
AcDbMText
 10
473.7276300529289
 20
135.778196910299
 30
0.0
 40
6.0
 41
0.0
 71
     7
 72
     1
  1
45,5
  7
CONVERTER_13
 11
0.9999999999970619
 21
2.424068405545306E-6
 31
0.0
 73
     1
 44
0.60024009603842
  0
ENDBLK
  5
2C0
330
2B8
100
AcDbEntity
  8
0
100
AcDbBlockEnd
  0
BLOCK
  5
2CA
330
2C3
100
AcDbEntity
  8
0
100
AcDbBlockBegin
  2
*D7
 70
     1
 10
0.0
 20
0.0
 30
0.0
  3
*D7
  1

  0
LINE
  5
2C4
330
2C3
100
AcDbEntity
  8
1
  6
Continuous
 62
     2
100
AcDbLine
 10
266.24871628639
 20
151.178196910299
 30
0.0
 11
349.24871628639
 21
151.178196910299
 31
0.0
  0
LINE
  5
2C5
330
2C3
100
AcDbEntity
  8
1
  6
Continuous
 62
     2
100
AcDbLine
 10
349.24871628639
 20
167.6541151959666
 30
0.0
 11
349.24871628639
 21
149.178196910299
 31
0.0
  0
LINE
  5
2C6
330
2C3
100
AcDbEntity
  8
1
  6
Continuous
 62
     2
100
AcDbLine
 10
266.24871628639
 20
167.6541151959664
 30
0.0
 11
266.24871628639
 21
149.178196910299
 31
0.0
  0
SOLID
  5
2C7
330
2C3
100
AcDbEntity
  8
1
 62
     2
100
AcDbTrace
 10
272.24871628639
 20
151.9681118958234
 30
0.0
 11
272.24871628639
 21
150.3882819247746
 31
0.0
 12
266.24871628639
 22
151.178196910299
 32
0.0
 13
266.24871628639
 23
151.178196910299
 33
0.0
  0
SOLID
  5
2C8
330
2C3
100
AcDbEntity
  8
1
 62
     2
100
AcDbTrace
 10
343.24871628639
 20
150.3882819247746
 30
0.0
 11
343.24871628639
 21
151.9681118958234
 31
0.0
 12
349.24871628639
 22
151.178196910299
 32
0.0
 13
349.24871628639
 23
151.178196910299
 33
0.0
  0
MTEXT
  5
2C9
330
2C3
100
AcDbEntity
  8
1
 62
     4
100
AcDbMText
 10
302.9487162863901
 20
155.178196910299
 30
0.0
 40
6.0
 41
0.0
 71
     7
 72
     1
  1
83
  7
CONVERTER_13
 11
0.9999999999970619
 21
2.424068405545306E-6
 31
0.0
 73
     1
 44
0.60024009603842
  0
ENDBLK
  5
2CB
330
2C3
100
AcDbEntity
  8
0
100
AcDbBlockEnd
  0
BLOCK
  5
2D5
330
2CE
100
AcDbEntity
  8
0
100
AcDbBlockBegin
  2
*D8
 70
     1
 10
0.0
 20
0.0
 30
0.0
  3
*D8
  1

  0
LINE
  5
2CF
330
2CE
100
AcDbEntity
  8
1
  6
Continuous
 62
     2
100
AcDbLine
 10
465.9776300529289
 20
151.178196910299
 30
0.0
 11
497.9776300529289
 21
151.178196910299
 31
0.0
  0
LINE
  5
2D0
330
2CE
100
AcDbEntity
  8
1
  6
Continuous
 62
     2
100
AcDbLine
 10
465.9776300529289
 20
167.6541151959623
 30
0.0
 11
465.9776300529289
 21
149.178196910299
 31
0.0
  0
LINE
  5
2D1
330
2CE
100
AcDbEntity
  8
1
  6
Continuous
 62
     2
100
AcDbLine
 10
497.9776300529289
 20
167.6541151959623
 30
0.0
 11
497.9776300529289
 21
149.178196910299
 31
0.0
  0
SOLID
  5
2D2
330
2CE
100
AcDbEntity
  8
1
 62
     2
100
AcDbTrace
 10
471.9776300529289
 20
151.9681118958234
 30
0.0
 11
471.9776300529289
 21
150.3882819247746
 31
0.0
 12
465.9776300529289
 22
151.178196910299
 32
0.0
 13
465.9776300529289
 23
151.178196910299
 33
0.0
  0
SOLID
  5
2D3
330
2CE
100
AcDbEntity
  8
1
 62
     2
100
AcDbTrace
 10
491.9776300529289
 20
150.3882819247746
 30
0.0
 11
491.9776300529289
 21
151.9681118958234
 31
0.0
 12
497.9776300529289
 22
151.178196910299
 32
0.0
 13
497.9776300529289
 23
151.178196910299
 33
0.0
  0
MTEXT
  5
2D4
330
2CE
100
AcDbEntity
  8
1
 62
     4
100
AcDbMText
 10
477.4776300529289
 20
155.178196910299
 30
0.0
 40
6.0
 41
0.0
 71
     7
 72
     1
  1
32
  7
CONVERTER_13
 11
0.9999999999970619
 21
2.424068405545306E-6
 31
0.0
 73
     1
 44
0.60024009603842
  0
ENDBLK
  5
2D6
330
2CE
100
AcDbEntity
  8
0
100
AcDbBlockEnd
  0
BLOCK
  5
2E0
330
2D9
100
AcDbEntity
  8
0
100
AcDbBlockBegin
  2
*D9
 70
     1
 10
0.0
 20
0.0
 30
0.0
  3
*D9
  1

  0
LINE
  5
2DA
330
2D9
100
AcDbEntity
  8
1
  6
Continuous
 62
     2
100
AcDbLine
 10
259.9987162863899
 20
131.178196910299
 30
0.0
 11
355.4987162863899
 21
131.178196910299
 31
0.0
  0
LINE
  5
2DB
330
2D9
100
AcDbEntity
  8
1
  6
Continuous
 62
     2
100
AcDbLine
 10
355.4987162863899
 20
170.1781969102991
 30
0.0
 11
355.4987162863899
 21
129.178196910299
 31
0.0
  0
LINE
  5
2DC
330
2D9
100
AcDbEntity
  8
1
  6
Continuous
 62
     2
100
AcDbLine
 10
259.9987162863899
 20
170.1781969102991
 30
0.0
 11
259.9987162863899
 21
129.178196910299
 31
0.0
  0
SOLID
  5
2DD
330
2D9
100
AcDbEntity
  8
1
 62
     2
100
AcDbTrace
 10
265.9987162863899
 20
131.9681118958234
 30
0.0
 11
265.9987162863899
 21
130.3882819247746
 31
0.0
 12
259.9987162863899
 22
131.178196910299
 32
0.0
 13
259.9987162863899
 23
131.178196910299
 33
0.0
  0
SOLID
  5
2DE
330
2D9
100
AcDbEntity
  8
1
 62
     2
100
AcDbTrace
 10
349.4987162863899
 20
130.3882819247746
 30
0.0
 11
349.4987162863899
 21
131.9681118958234
 31
0.0
 12
355.4987162863899
 22
131.178196910299
 32
0.0
 13
355.4987162863899
 23
131.178196910299
 33
0.0
  0
MTEXT
  5
2DF
330
2D9
100
AcDbEntity
  8
1
 62
     4
100
AcDbMText
 10
299.4987162863899
 20
135.778196910299
 30
0.0
 40
6.0
 41
0.0
 71
     7
 72
     1
  1
95,5
  7
CONVERTER_13
 11
0.9999999999970619
 21
2.424068405545306E-6
 31
0.0
 73
     1
 44
0.60024009603842
  0
ENDBLK
  5
2E1
330
2D9
100
AcDbEntity
  8
0
100
AcDbBlockEnd
  0
BLOCK
  5
2EB
330
2E4
100
AcDbEntity
  8
0
100
AcDbBlockBegin
  2
*D10
 70
     1
 10
0.0
 20
0.0
 30
0.0
  3
*D10
  1

  0
LINE
  5
2E5
330
2E4
100
AcDbEntity
  8
1
  6
Continuous
 62
     2
100
AcDbLine
 10
452.9776300529235
 20
235.6781969102913
 30
0.0
 11
510.9776300529235
 21
235.6781969102913
 31
0.0
  0
LINE
  5
2E6
330
2E4
100
AcDbEntity
  8
1
  6
Continuous
 62
     2
100
AcDbLine
 10
452.9776300529235
 20
216.6781969102894
 30
0.0
 11
452.9776300529235
 21
237.6781969102913
 31
0.0
  0
LINE
  5
2E7
330
2E4
100
AcDbEntity
  8
1
  6
Continuous
 62
     2
100
AcDbLine
 10
510.9776300529235
 20
216.6781969102958
 30
0.0
 11
510.9776300529235
 21
237.6781969102913
 31
0.0
  0
SOLID
  5
2E8
330
2E4
100
AcDbEntity
  8
1
 62
     2
100
AcDbTrace
 10
458.9776300529235
 20
236.4681118958157
 30
0.0
 11
458.9776300529235
 21
234.8882819247669
 31
0.0
 12
452.9776300529235
 22
235.6781969102913
 32
0.0
 13
452.9776300529235
 23
235.6781969102913
 33
0.0
  0
SOLID
  5
2E9
330
2E4
100
AcDbEntity
  8
1
 62
     2
100
AcDbTrace
 10
504.9776300529235
 20
234.8882819247669
 30
0.0
 11
504.9776300529235
 21
236.4681118958157
 31
0.0
 12
510.9776300529235
 22
235.6781969102913
 32
0.0
 13
510.9776300529235
 23
235.6781969102913
 33
0.0
  0
MTEXT
  5
2EA
330
2E4
100
AcDbEntity
  8
1
 62
     4
100
AcDbMText
 10
477.4776300529235
 20
239.6781969102913
 30
0.0
 40
6.0
 41
0.0
 71
     7
 72
     1
  1
58
  7
CONVERTER_13
 11
0.9999999999970619
 21
2.424068405545306E-6
 31
0.0
 73
     1
 44
0.60024009603842
  0
ENDBLK
  5
2EC
330
2E4
100
AcDbEntity
  8
0
100
AcDbBlockEnd
  0
BLOCK
  5
2F6
330
2EF
100
AcDbEntity
  8
0
100
AcDbBlockBegin
  2
*D11
 70
     1
 10
0.0
 20
0.0
 30
0.0
  3
*D11
  1

  0
LINE
  5
2F0
330
2EF
100
AcDbEntity
  8
1
  6
Continuous
 62
     2
100
AcDbLine
 10
64.67180382512697
 20
245.0901044932991
 30
0.0
 11
64.67180382512697
 21
180.0901044932991
 31
0.0
  0
LINE
  5
2F1
330
2EF
100
AcDbEntity
  8
1
  6
Continuous
 62
     2
100
AcDbLine
 10
83.6718038251269
 20
180.0901044932991
 30
0.0
 11
62.67180382512697
 21
180.0901044932991
 31
0.0
  0
LINE
  5
2F2
330
2EF
100
AcDbEntity
  8
1
  6
Continuous
 62
     2
100
AcDbLine
 10
83.67180382512699
 20
245.0901044932991
 30
0.0
 11
62.67180382512697
 21
245.0901044932991
 31
0.0
  0
SOLID
  5
2F3
330
2EF
100
AcDbEntity
  8
1
 62
     2
100
AcDbTrace
 10
65.46171881065135
 20
239.0901044932991
 30
0.0
 11
63.8818888396026
 21
239.0901044932991
 31
0.0
 12
64.67180382512697
 22
245.0901044932991
 32
0.0
 13
64.67180382512697
 23
245.0901044932991
 33
0.0
  0
SOLID
  5
2F4
330
2EF
100
AcDbEntity
  8
1
 62
     2
100
AcDbTrace
 10
63.8818888396026
 20
186.0901044932991
 30
0.0
 11
65.46171881065135
 21
186.0901044932991
 31
0.0
 12
64.67180382512697
 22
180.0901044932991
 32
0.0
 13
64.67180382512697
 23
180.0901044932991
 33
0.0
  0
MTEXT
  5
2F5
330
2EF
100
AcDbEntity
  8
1
 62
     4
100
AcDbMText
 10
60.67180382512697
 20
208.0901044932991
 30
0.0
 40
6.0
 41
0.0
 71
     7
 72
     1
  1
65
  7
CONVERTER_13
 11
0.0
 21
1.0
 31
0.0
 73
     1
 44
0.60024009603842
  0
ENDBLK
  5
2F7
330
2EF
100
AcDbEntity
  8
0
100
AcDbBlockEnd
  0
BLOCK
  5
301
330
2FA
100
AcDbEntity
  8
0
100
AcDbBlockBegin
  2
*D12
 70
     1
 10
0.0
 20
0.0
 30
0.0
  3
*D12
  1

  0
LINE
  5
2FB
330
2FA
100
AcDbEntity
  8
1
  6
Continuous
 62
     2
100
AcDbLine
 10
139.671803825127
 20
254.090104493299
 30
0.0
 11
139.671803825127
 21
171.090104493299
 31
0.0
  0
LINE
  5
2FC
330
2FA
100
AcDbEntity
  8
1
  6
Continuous
 62
     2
100
AcDbLine
 10
126.421803825127
 20
171.090104493299
 30
0.0
 11
141.671803825127
 21
171.090104493299
 31
0.0
  0
LINE
  5
2FD
330
2FA
100
AcDbEntity
  8
1
  6
Continuous
 62
     2
100
AcDbLine
 10
126.421803825127
 20
254.090104493299
 30
0.0
 11
141.671803825127
 21
254.090104493299
 31
0.0
  0
SOLID
  5
2FE
330
2FA
100
AcDbEntity
  8
1
 62
     2
100
AcDbTrace
 10
140.4617188106514
 20
248.090104493299
 30
0.0
 11
138.8818888396026
 21
248.090104493299
 31
0.0
 12
139.671803825127
 22
254.090104493299
 32
0.0
 13
139.671803825127
 23
254.090104493299
 33
0.0
  0
SOLID
  5
2FF
330
2FA
100
AcDbEntity
  8
1
 62
     2
100
AcDbTrace
 10
138.8818888396026
 20
177.090104493299
 30
0.0
 11
140.4617188106514
 21
177.090104493299
 31
0.0
 12
139.671803825127
 22
171.090104493299
 32
0.0
 13
139.671803825127
 23
171.090104493299
 33
0.0
  0
MTEXT
  5
300
330
2FA
100
AcDbEntity
  8
1
 62
     4
100
AcDbMText
 10
135.671803825127
 20
207.790104493299
 30
0.0
 40
6.0
 41
0.0
 71
     7
 72
     1
  1
83
  7
CONVERTER_13
 11
0.0
 21
1.0
 31
0.0
 73
     1
 44
0.60024009603842
  0
ENDBLK
  5
302
330
2FA
100
AcDbEntity
  8
0
100
AcDbBlockEnd
  0
BLOCK
  5
30C
330
305
100
AcDbEntity
  8
0
100
AcDbBlockBegin
  2
*D13
 70
     1
 10
0.0
 20
0.0
 30
0.0
  3
*D13
  1

  0
LINE
  5
306
330
305
100
AcDbEntity
  8
1
  6
Continuous
 62
     2
100
AcDbLine
 10
86.17180382512679
 20
274.090104493299
 30
0.0
 11
118.171803825127
 21
274.090104493299
 31
0.0
  0
LINE
  5
307
330
305
100
AcDbEntity
  8
1
  6
Continuous
 62
     2
100
AcDbLine
 10
118.171803825127
 20
262.340104493299
 30
0.0
 11
118.171803825127
 21
276.090104493299
 31
0.0
  0
LINE
  5
308
330
305
100
AcDbEntity
  8
1
  6
Continuous
 62
     2
100
AcDbLine
 10
86.17180382512679
 20
262.340104493299
 30
0.0
 11
86.17180382512679
 21
276.090104493299
 31
0.0
  0
SOLID
  5
309
330
305
100
AcDbEntity
  8
1
 62
     2
100
AcDbTrace
 10
92.17180382512679
 20
274.8800194788234
 30
0.0
 11
92.17180382512679
 21
273.3001895077746
 31
0.0
 12
86.17180382512679
 22
274.090104493299
 32
0.0
 13
86.17180382512679
 23
274.090104493299
 33
0.0
  0
SOLID
  5
30A
330
305
100
AcDbEntity
  8
1
 62
     2
100
AcDbTrace
 10
112.171803825127
 20
273.3001895077746
 30
0.0
 11
112.171803825127
 21
274.8800194788234
 31
0.0
 12
118.171803825127
 22
274.090104493299
 32
0.0
 13
118.171803825127
 23
274.090104493299
 33
0.0
  0
MTEXT
  5
30B
330
305
100
AcDbEntity
  8
1
 62
     4
100
AcDbMText
 10
97.6718038251269
 20
278.090104493299
 30
0.0
 40
6.0
 41
0.0
 71
     7
 72
     1
  1
32
  7
CONVERTER_13
 11
0.9999999999970619
 21
2.424068405545306E-6
 31
0.0
 73
     1
 44
0.60024009603842
  0
ENDBLK
  5
30D
330
305
100
AcDbEntity
  8
0
100
AcDbBlockEnd
  0
BLOCK
  5
317
330
310
100
AcDbEntity
  8
0
100
AcDbBlockBegin
  2
*D14
 70
     1
 10
0.0
 20
0.0
 30
0.0
  3
*D14
  1

  0
LINE
  5
311
330
310
100
AcDbEntity
  8
1
  6
Continuous
 62
     2
100
AcDbLine
 10
84.67180382512686
 20
151.5901044932991
 30
0.0
 11
119.6718038251269
 21
151.5901044932991
 31
0.0
  0
LINE
  5
312
330
310
100
AcDbEntity
  8
1
  6
Continuous
 62
     2
100
AcDbLine
 10
119.6718038251269
 20
179.090104493299
 30
0.0
 11
119.6718038251269
 21
149.5901044932991
 31
0.0
  0
LINE
  5
313
330
310
100
AcDbEntity
  8
1
  6
Continuous
 62
     2
100
AcDbLine
 10
84.67180382512686
 20
179.0901044932991
 30
0.0
 11
84.67180382512686
 21
149.5901044932991
 31
0.0
  0
SOLID
  5
314
330
310
100
AcDbEntity
  8
1
 62
     2
100
AcDbTrace
 10
90.67180382512686
 20
152.3800194788235
 30
0.0
 11
90.67180382512686
 21
150.8001895077747
 31
0.0
 12
84.67180382512686
 22
151.5901044932991
 32
0.0
 13
84.67180382512686
 23
151.5901044932991
 33
0.0
  0
SOLID
  5
315
330
310
100
AcDbEntity
  8
1
 62
     2
100
AcDbTrace
 10
113.6718038251269
 20
150.8001895077747
 30
0.0
 11
113.6718038251269
 21
152.3800194788235
 31
0.0
 12
119.6718038251269
 22
151.5901044932991
 32
0.0
 13
119.6718038251269
 23
151.5901044932991
 33
0.0
  0
MTEXT
  5
316
330
310
100
AcDbEntity
  8
1
 62
     4
100
AcDbMText
 10
97.6718038251269
 20
155.5901044932991
 30
0.0
 40
6.0
 41
0.0
 71
     7
 72
     1
  1
35
  7
CONVERTER_13
 11
0.9999999999970619
 21
2.424068405545306E-6
 31
0.0
 73
     1
 44
0.60024009603842
  0
ENDBLK
  5
318
330
310
100
AcDbEntity
  8
0
100
AcDbBlockEnd
  0
BLOCK
  5
321
330
31B
100
AcDbEntity
  8
0
100
AcDbBlockBegin
  2
*D15
 70
     1
 10
0.0
 20
0.0
 30
0.0
  3
*D15
  1

  0
LINE
  5
31C
330
31B
100
AcDbEntity
  8
1
  6
Continuous
 62
     2
100
AcDbLine
 10
132.8490156107411
 20
264.6173162789131
 30
0.0
 11
160.5490156107411
 21
264.6173162789131
 31
0.0
  0
LINE
  5
31D
330
31B
100
AcDbEntity
  8
1
  6
Continuous
 62
     2
100
AcDbLine
 10
109.0301313057757
 20
247.5332513190289
 30
0.0
 11
132.8490156107411
 21
264.6173162789131
 31
0.0
  0
SOLID
  5
31E
330
31B
100
AcDbEntity
  8
1
 62
     2
100
AcDbTrace
 10
124.4153097544078
 20
259.5403429647232
 30
0.0
 11
125.3360842575614
 21
258.2565840108045
 31
0.0
 12
120.0001383289973
 22
255.4014751281531
 32
0.0
 13
120.0001383289973
 23
255.4014751281531
 33
0.0
  0
SOLID
  5
31F
330
31B
100
AcDbEntity
  8
1
 62
     2
100
AcDbTrace
 10
111.9282978958462
 20
248.6398660218749
 30
0.0
 11
111.0075233926926
 21
249.9236249757935
 31
0.0
 12
116.3434693212567
 22
252.778733858445
 32
0.0
 13
116.3434693212567
 23
252.778733858445
 33
0.0
  0
MTEXT
  5
320
330
31B
100
AcDbEntity
  8
1
 62
     4
100
AcDbMText
 10
144.5290156107556
 20
269.2173043524966
 30
0.0
 40
6.0
 41
0.0
 71
     7
 72
     1
  1
\C4;\U+00f8\C4;4,5
  7
CONVERTER_13
 11
0.9999999999970619
 21
2.424068405545306E-6
 31
0.0
 73
     1
 44
0.60024009603842
  0
ENDBLK
  5
322
330
31B
100
AcDbEntity
  8
0
100
AcDbBlockEnd
  0
ENDSEC
  0
SECTION
  2
ENTITIES
  0
INSERT
  5
54
330
1F
100
AcDbEntity
  8
0
100
AcDbBlockReference
  2
A4_oriz
 10
594.0000000000003
 20
0.0
 30
0.0
  0
POINT
  5
B0
330
1F
100
AcDbEntity
  8
Bemaßungen_TC_020513_DIN_
 62
     7
100
AcDbPoint
 10
86.17180382512674
 20
254.090104493299
 30
0.0
  0
POINT
  5
B1
330
1F
100
AcDbEntity
  8
Bemaßungen_TC_020513_DIN_
 62
     7
100
AcDbPoint
 10
118.171803825127
 20
254.090104493299
 30
0.0
  0
POINT
  5
B2
330
1F
100
AcDbEntity
  8
Bemaßungen_TC_020513_DIN_
 62
     7
100
AcDbPoint
 10
118.171803825127
 20
254.090104493299
 30
0.0
  0
POINT
  5
B3
330
1F
100
AcDbEntity
  8
Bemaßungen_TC_020513_DIN_
 62
     2
100
AcDbPoint
 10
118.171803825127
 20
171.090104493299
 30
0.0
  0
POINT
  5
B4
330
1F
100
AcDbEntity
  8
Bemaßungen_TC_020513_DIN_
 62
     7
100
AcDbPoint
 10
84.67180382512686
 20
180.0901044932991
 30
0.0
  0
POINT
  5
B5
330
1F
100
AcDbEntity
  8
Bemaßungen_TC_020513_DIN_
 62
     7
100
AcDbPoint
 10
119.671803825127
 20
180.090104493299
 30
0.0
  0
POINT
  5
B6
330
1F
100
AcDbEntity
  8
Bemaßungen_TC_020513_DIN_
 62
     7
100
AcDbPoint
 10
84.67180382512697
 20
245.0901044932991
 30
0.0
  0
POINT
  5
B7
330
1F
100
AcDbEntity
  8
Bemaßungen_TC_020513_DIN_
 62
     7
100
AcDbPoint
 10
84.67180382512686
 20
180.0901044932991
 30
0.0
  0
LINE
  5
B8
330
1F
100
AcDbEntity
  8
1
  6
Continuous
 62
     7
100
AcDbLine
 10
460.1023461569718
 20
174.678196910299
 30
0.0
 11
503.8529139488852
 21
174.678196910299
 31
0.0
  0
LINE
  5
B9
330
1F
100
AcDbEntity
  8
1
  6
Continuous
 62
     7
100
AcDbLine
 10
503.8529139488852
 20
174.678196910299
 30
0.0
 11
504.7276300529289
 21
174.678196910299
 31
0.0
  0
LINE
  5
BA
330
1F
100
AcDbEntity
  8
1
  6
Continuous
 62
     7
100
AcDbLine
 10
459.2276300529289
 20
171.178196910299
 30
0.0
 11
459.2276300529289
 21
174.678196910299
 31
0.0
  0
LINE
  5
BB
330
1F
100
AcDbEntity
  8
1
  6
Continuous
 62
     7
100
AcDbLine
 10
504.7276300529289
 20
171.178196910299
 30
0.0
 11
459.2276300529289
 21
171.178196910299
 31
0.0
  0
LINE
  5
BC
330
1F
100
AcDbEntity
  8
1
  6
Continuous
 62
     7
100
AcDbLine
 10
504.7276300529289
 20
174.678196910299
 30
0.0
 11
504.7276300529289
 21
171.178196910299
 31
0.0
  0
LINE
  5
BD
330
1F
100
AcDbEntity
  8
1
  6
Continuous
 62
     7
100
AcDbLine
 10
459.2276300529289
 20
174.678196910299
 30
0.0
 11
460.1023461569718
 21
174.678196910299
 31
0.0
  0
LINE
  5
BE
330
1F
100
AcDbEntity
  8
0
  6
Continuous
 62
     7
100
AcDbLine
 10
460.4786963492348
 20
198.6604927319704
 30
0.0
 11
460.478696349233
 21
198.6604928159604
 31
0.0
  0
LINE
  5
BF
330
1F
100
AcDbEntity
  8
1
  6
Continuous
 62
     7
100
AcDbLine
 10
261.2487162863901
 20
174.678196910299
 30
0.0
 11
259.9987162863899
 21
174.678196910299
 31
0.0
  0
LINE
  5
C0
330
1F
100
AcDbEntity
  8
1
  6
Continuous
 62
     7
100
AcDbLine
 10
354.2487162863899
 20
174.678196910299
 30
0.0
 11
261.2487162863901
 21
174.678196910299
 31
0.0
  0
LINE
  5
C1
330
1F
100
AcDbEntity
  8
0
  6
Continuous
 62
     7
100
AcDbLine
 10
503.478696349233
 20
198.6599472603539
 30
0.0
 11
503.478696349233
 21
198.6599473357726
 31
0.0
  0
LINE
  5
C2
330
1F
100
AcDbEntity
  8
0
  6
Continuous
 62
     7
100
AcDbLine
 10
460.478696349233
 20
198.6604927319699
 30
0.0
 11
460.4786963492348
 21
198.6604927319704
 31
0.0
  0
LINE
  5
C3
330
1F
100
AcDbEntity
  8
0
  6
Continuous
 62
     7
100
AcDbLine
 10
270.7616438632366
 20
197.9407415119431
 30
0.0
 11
270.8466438632368
 21
197.8792471968029
 31
0.0
  0
LINE
  5
C4
330
1F
100
AcDbEntity
  8
0
  6
Continuous
 62
     7
100
AcDbLine
 10
270.7616438632366
 20
194.6781969102981
 30
0.0
 11
270.8466438632368
 21
194.6781969102981
 31
0.0
  0
LINE
  5
C5
330
1F
100
AcDbEntity
  8
0
  6
Continuous
 62
     7
100
AcDbLine
 10
291.4764789056425
 20
200.178196910299
 30
0.0
 11
293.3403152770416
 21
205.2990452542767
 31
0.0
  0
LINE
  5
C6
330
1F
100
AcDbEntity
  8
0
  6
Continuous
 62
     7
100
AcDbLine
 10
295.2921901834997
 20
187.021887526575
 30
0.0
 11
295.350577566929
 21
188.6938834269949
 31
0.0
  0
LINE
  5
C7
330
1F
100
AcDbEntity
  8
1
  6
Continuous
 62
     7
100
AcDbLine
 10
259.9987162863899
 20
174.678196910299
 30
0.0
 11
259.9987162863899
 21
171.178196910299
 31
0.0
  0
LINE
  5
C8
330
1F
100
AcDbEntity
  8
1
  6
Continuous
 62
     7
100
AcDbLine
 10
355.4987162863899
 20
174.678196910299
 30
0.0
 11
354.2487162863899
 21
174.678196910299
 31
0.0
  0
LINE
  5
C9
330
1F
100
AcDbEntity
  8
1
  6
Continuous
 62
     7
100
AcDbLine
 10
355.4987162863899
 20
171.178196910299
 30
0.0
 11
355.4987162863899
 21
174.678196910299
 31
0.0
  0
LINE
  5
CA
330
1F
100
AcDbEntity
  8
1
  6
Continuous
 62
     7
100
AcDbLine
 10
259.9987162863899
 20
171.178196910299
 30
0.0
 11
355.4987162863899
 21
171.178196910299
 31
0.0
  0
LINE
  5
CB
330
1F
100
AcDbEntity
  8
0
  6
Continuous
 62
     7
100
AcDbLine
 10
503.5893424684679
 20
188.2781969102989
 30
0.0
 11
503.6167443080009
 21
186.7083465748519
 31
0.0
  0
LINE
  5
CC
330
1F
100
AcDbEntity
  8
0
  6
Continuous
 62
     7
100
AcDbLine
 10
503.6167443080009
 20
186.7083465748519
 30
0.0
 11
503.783093689172
 21
177.178196910299
 31
0.0
  0
LINE
  5
CD
330
1F
100
AcDbEntity
  8
0
  6
Continuous
 62
     7
100
AcDbLine
 10
503.5055581568118
 20
193.0781969102988
 30
0.0
 11
503.5893424684679
 21
188.2781969102989
 31
0.0
  0
LINE
  5
CE
330
1F
100
AcDbEntity
  8
0
  6
Continuous
 62
     7
100
AcDbLine
 10
505.4776300529262
 20
193.0781969102988
 30
0.0
 11
505.4776300529271
 21
188.2781969102989
 31
0.0
  0
LINE
  5
CF
330
1F
100
AcDbEntity
  8
1
  6
Continuous
 62
     7
100
AcDbLine
 10
503.5055581568118
 20
193.0781969102988
 30
0.0
 11
505.4776300529262
 21
193.0781969102988
 31
0.0
  0
LINE
  5
D0
330
1F
100
AcDbEntity
  8
0
  6
Continuous
 62
     7
100
AcDbLine
 10
505.4776300529271
 20
188.2781969102989
 30
0.0
 11
505.4776300529271
 21
187.5173758040396
 31
0.0
  0
LINE
  5
D1
330
1F
100
AcDbEntity
  8
1
  6
Continuous
 62
     7
100
AcDbLine
 10
503.5893424684679
 20
188.2781969102989
 30
0.0
 11
505.4776300529271
 21
188.2781969102989
 31
0.0
  0
LINE
  5
D2
330
1F
100
AcDbEntity
  8
0
  6
Continuous
 62
     7
100
AcDbLine
 10
458.4776300529262
 20
188.2781969102989
 30
0.0
 11
458.4776300529262
 21
193.0781969102988
 31
0.0
  0
LINE
  5
D3
330
1F
100
AcDbEntity
  8
0
  6
Continuous
 62
     7
100
AcDbLine
 10
460.3659176373864
 20
188.2781969102989
 30
0.0
 11
460.4497019490415
 21
193.0781969102988
 31
0.0
  0
LINE
  5
D4
330
1F
100
AcDbEntity
  8
1
  6
Continuous
 62
     7
100
AcDbLine
 10
458.4776300529262
 20
188.2781969102989
 30
0.0
 11
460.3659176373864
 21
188.2781969102989
 31
0.0
  0
LINE
  5
D5
330
1F
100
AcDbEntity
  8
0
  6
Continuous
 62
     7
100
AcDbLine
 10
460.4497019490415
 20
193.0781969102988
 30
0.0
 11
460.4776300529262
 21
194.678196910294
 31
0.0
  0
LINE
  5
D6
330
1F
100
AcDbEntity
  8
1
  6
Continuous
 62
     7
100
AcDbLine
 10
458.4776300529262
 20
193.0781969102988
 30
0.0
 11
460.4497019490415
 21
193.0781969102988
 31
0.0
  0
LINE
  5
D7
330
1F
100
AcDbEntity
  8
0
  6
Continuous
 62
     7
100
AcDbLine
 10
510.977630052928
 20
183.1781969102999
 30
0.0
 11
510.9776300529262
 21
201.6781969102958
 31
0.0
  0
LINE
  5
D8
330
1F
100
AcDbEntity
  8
0
  6
Continuous
 62
     7
100
AcDbLine
 10
503.4776300529262
 20
194.678196910299
 30
0.0
 11
503.5055581568118
 21
193.0781969102988
 31
0.0
  0
LINE
  5
D9
330
1F
100
AcDbEntity
  8
0
  6
Continuous
 62
     7
100
AcDbLine
 10
505.4776300529262
 20
193.8390180165588
 30
0.0
 11
505.4776300529262
 21
193.0781969102988
 31
0.0
  0
LINE
  5
DA
330
1F
100
AcDbEntity
  8
0
  6
Continuous
 62
     7
100
AcDbLine
 10
505.4776300529271
 20
187.5173758040396
 30
0.0
 11
505.477630052928
 21
183.1781969102992
 31
0.0
  0
LINE
  5
DB
330
1F
100
AcDbEntity
  8
0
  6
Continuous
 62
     7
100
AcDbLine
 10
505.4776300529262
 20
195.7843467860489
 30
0.0
 11
505.4776300529262
 21
193.8390180165588
 31
0.0
  0
LINE
  5
DC
330
1F
100
AcDbEntity
  8
0
  6
Continuous
 62
     7
100
AcDbLine
 10
503.4786963492339
 20
194.678196910299
 30
0.0
 11
503.478696349233
 21
198.6123966919729
 31
0.0
  0
LINE
  5
DD
330
1F
100
AcDbEntity
  8
0
  6
Continuous
 62
     7
100
AcDbLine
 10
505.477630052928
 20
183.1781969102992
 30
0.0
 11
510.977630052928
 21
183.1781969102999
 31
0.0
  0
LINE
  5
DE
330
1F
100
AcDbEntity
  8
0
  6
Continuous
 62
     7
100
AcDbLine
 10
460.1023461569718
 20
174.678196910299
 30
0.0
 11
460.172166416685
 21
177.178196910294
 31
0.0
  0
LINE
  5
DF
330
1F
100
AcDbEntity
  8
0
  6
Continuous
 62
     7
100
AcDbLine
 10
460.4776300529262
 20
194.678196910294
 30
0.0
 11
460.4786963492339
 21
194.678196910294
 31
0.0
  0
LINE
  5
E0
330
1F
100
AcDbEntity
  8
0
  6
Continuous
 62
     7
100
AcDbLine
 10
460.4786963492339
 20
194.678196910294
 30
0.0
 11
503.4776300529262
 21
194.678196910299
 31
0.0
  0
LINE
  5
E1
330
1F
100
AcDbEntity
  8
0
  6
Continuous
 62
     7
100
AcDbLine
 10
460.4776300529262
 20
194.7085278522791
 30
0.0
 11
460.4776300529262
 21
194.678196910294
 31
0.0
  0
LINE
  5
E2
330
1F
100
AcDbEntity
  8
0
  6
Continuous
 62
     7
100
AcDbLine
 10
458.477630052928
 20
183.1781969102937
 30
0.0
 11
458.4776300529262
 21
188.2781969102989
 31
0.0
  0
LINE
  5
E3
330
1F
100
AcDbEntity
  8
0
  6
Continuous
 62
     7
100
AcDbLine
 10
460.172166416685
 20
177.178196910294
 30
0.0
 11
460.3659176373864
 21
188.2781969102989
 31
0.0
  0
LINE
  5
E4
330
1F
100
AcDbEntity
  8
0
  6
Continuous
 62
     7
100
AcDbLine
 10
460.172166416685
 20
177.178196910294
 30
0.0
 11
503.783093689172
 21
177.178196910299
 31
0.0
  0
LINE
  5
E5
330
1F
100
AcDbEntity
  8
0
  6
Continuous
 62
     7
100
AcDbLine
 10
503.8529139488852
 20
174.678196910299
 30
0.0
 11
503.783093689172
 21
177.178196910299
 31
0.0
  0
LINE
  5
E6
330
1F
100
AcDbEntity
  8
0
  6
Continuous
 62
     7
100
AcDbLine
 10
503.4776300529262
 20
194.678196910299
 30
0.0
 11
503.4786963492339
 21
194.678196910299
 31
0.0
  0
LINE
  5
E7
330
1F
100
AcDbEntity
  8
0
  6
Continuous
 62
     7
100
AcDbLine
 10
502.4776300529262
 20
198.7843467860487
 30
0.0
 11
461.4776300529262
 21
198.7843467860439
 31
0.0
  0
LINE
  5
E8
330
1F
100
AcDbEntity
  8
0
  6
Continuous
 62
     7
100
AcDbLine
 10
452.977630052928
 20
183.1781969102931
 30
0.0
 11
452.9776300529262
 21
201.6781969102894
 31
0.0
  0
LINE
  5
E9
330
1F
100
AcDbEntity
  8
0
  6
Continuous
 62
     7
100
AcDbLine
 10
458.4776300529262
 20
193.0781969102988
 30
0.0
 11
458.4776300529262
 21
195.7843467860436
 31
0.0
  0
LINE
  5
EA
330
1F
100
AcDbEntity
  8
0
  6
Continuous
 62
     7
100
AcDbLine
 10
460.4786963492339
 20
194.678196910294
 30
0.0
 11
460.478696349233
 21
198.6131506773779
 31
0.0
  0
LINE
  5
EB
330
1F
100
AcDbEntity
  8
0
  6
Continuous
 62
     7
100
AcDbLine
 10
452.977630052928
 20
183.1781969102931
 30
0.0
 11
458.477630052928
 21
183.1781969102937
 31
0.0
  0
LINE
  5
EC
330
1F
100
AcDbEntity
  8
0
  6
Continuous
 62
     7
100
AcDbLine
 10
510.9776300529235
 20
215.6781969102958
 30
0.0
 11
510.9776300529235
 21
215.6100733914868
 31
0.0
  0
LINE
  5
ED
330
1F
100
AcDbEntity
  8
0
  6
Continuous
 62
     7
100
AcDbLine
 10
510.9776300529235
 20
215.6100733914868
 30
0.0
 11
510.9776300529235
 21
215.407028781864
 31
0.0
  0
LINE
  5
EE
330
1F
100
AcDbEntity
  8
0
  6
Continuous
 62
     7
100
AcDbLine
 10
452.9776300529235
 20
215.6781969102894
 30
0.0
 11
510.9776300529235
 21
215.6781969102958
 31
0.0
  0
LINE
  5
EF
330
1F
100
AcDbEntity
  8
0
  6
Continuous
 62
     7
100
AcDbLine
 10
452.9776300529235
 20
215.6100733914802
 30
0.0
 11
452.9776300529235
 21
215.4070287818574
 31
0.0
  0
LINE
  5
F0
330
1F
100
AcDbEntity
  8
0
  6
Continuous
 62
     7
100
AcDbLine
 10
452.9776300529235
 20
215.6781969102894
 30
0.0
 11
452.9776300529235
 21
215.6100733914802
 31
0.0
  0
LINE
  5
F1
330
1F
100
AcDbEntity
  8
0
  6
Continuous
 62
     7
100
AcDbLine
 10
291.4764789056425
 20
200.178196910299
 30
0.0
 11
324.0209536671374
 21
200.178196910299
 31
0.0
  0
LINE
  5
F2
330
1F
100
AcDbEntity
  8
0
  6
Continuous
 62
     7
100
AcDbLine
 10
271.2505775669296
 20
194.6781969102981
 30
0.0
 11
270.9451139306856
 21
177.1781969102981
 31
0.0
  0
LINE
  5
F3
330
1F
100
AcDbEntity
  8
0
  6
Continuous
 62
     7
100
AcDbLine
 10
261.2487162863901
 20
174.678196910299
 30
0.0
 11
261.3185365461031
 21
177.1781969102983
 31
0.0
  0
LINE
  5
F4
330
1F
100
AcDbEntity
  8
0
  6
Continuous
 62
     7
100
AcDbLine
 10
270.9451139306856
 20
177.1781969102981
 30
0.0
 11
277.94404779678
 21
177.178196910299
 31
0.0
  0
LINE
  5
F5
330
1F
100
AcDbEntity
  8
0
  6
Continuous
 62
     7
100
AcDbLine
 10
289.1994467086178
 20
184.6016819982246
 30
0.0
 11
275.2712687042848
 21
194.6781969102999
 31
0.0
  0
LINE
  5
F6
330
1F
100
AcDbEntity
  8
0
  6
Continuous
 62
     7
100
AcDbLine
 10
261.3185365461031
 20
177.1781969102983
 30
0.0
 11
270.9451139306856
 21
177.1781969102981
 31
0.0
  0
LINE
  5
F7
330
1F
100
AcDbEntity
  8
0
  6
Continuous
 62
     7
100
AcDbLine
 10
344.5523186420943
 20
177.1781969102981
 30
0.0
 11
344.2468550058503
 21
194.6781969102981
 31
0.0
  0
LINE
  5
F8
330
1F
100
AcDbEntity
  8
0
  6
Continuous
 62
     7
100
AcDbLine
 10
344.5523186420943
 20
177.1781969102981
 30
0.0
 11
337.5533847759981
 21
177.178196910299
 31
0.0
  0
LINE
  5
F9
330
1F
100
AcDbEntity
  8
0
  6
Continuous
 62
     7
100
AcDbLine
 10
344.5523186420943
 20
177.1781969102981
 30
0.0
 11
354.1788960266767
 21
177.1781969102983
 31
0.0
  0
LINE
  5
FA
330
1F
100
AcDbEntity
  8
0
  6
Continuous
 62
     7
100
AcDbLine
 10
354.1788960266767
 20
177.1781969102983
 30
0.0
 11
354.2487162863899
 21
174.678196910299
 31
0.0
  0
LINE
  5
FB
330
1F
100
AcDbEntity
  8
0
  6
Continuous
 62
     7
100
AcDbLine
 10
296.2861684898097
 20
186.4772626552828
 30
0.0
 11
295.3278690193492
 21
187.0305371125173
 31
0.0
  0
LINE
  5
FC
330
1F
100
AcDbEntity
  8
0
  6
Continuous
 62
     7
100
AcDbLine
 10
292.6505775669301
 20
188.6938834269949
 30
0.0
 11
292.7076092423276
 21
187.0607099251283
 31
0.0
  0
LINE
  5
FD
330
1F
100
AcDbEntity
  8
0
  6
Continuous
 62
     7
100
AcDbLine
 10
292.7076092423276
 20
187.0607099251283
 30
0.0
 11
292.7135387352219
 21
186.8909114647961
 31
0.0
  0
LINE
  5
FE
330
1F
100
AcDbEntity
  8
0
  6
Continuous
 62
     7
100
AcDbLine
 10
295.2876163986365
 20
186.8909114647961
 30
0.0
 11
295.2921901834997
 21
187.021887526575
 31
0.0
  0
LINE
  5
FF
330
1F
100
AcDbEntity
  8
0
  6
Continuous
 62
     7
100
AcDbLine
 10
296.9278690193486
 20
189.8018184046273
 30
0.0
 11
298.248265246424
 21
189.039487287489
 31
0.0
  0
LINE
  5
100
330
1F
100
AcDbEntity
  8
0
  6
Continuous
 62
     7
100
AcDbLine
 10
302.3955775669255
 20
211.6781969102937
 30
0.0
 11
302.3955775669255
 21
209.3781969102952
 31
0.0
  0
LINE
  5
101
330
1F
100
AcDbEntity
  8
0
  6
Continuous
 62
     7
100
AcDbLine
 10
296.8333999164951
 20
206.5343573687485
 30
0.0
 11
297.0904199738051
 21
206.3796295750514
 31
0.0
  0
LINE
  5
102
330
1F
100
AcDbEntity
  8
0
  6
Continuous
 62
     7
100
AcDbLine
 10
291.470862792159
 20
200.1627667653185
 30
0.0
 11
291.4764789056425
 21
200.178196910299
 31
0.0
  0
LINE
  5
103
330
1F
100
AcDbEntity
  8
0
  6
Continuous
 62
     7
100
AcDbLine
 10
270.8466438632368
 20
197.8792471968029
 30
0.0
 11
275.2712687042848
 21
194.6781969102999
 31
0.0
  0
LINE
  5
104
330
1F
100
AcDbEntity
  8
0
  6
Continuous
 62
     7
100
AcDbLine
 10
265.5955775669289
 20
201.6781969102958
 30
0.0
 11
267.6689399535034
 21
200.178196910299
 31
0.0
  0
LINE
  5
105
330
1F
100
AcDbEntity
  8
0
  6
Continuous
 62
     7
100
AcDbLine
 10
270.7616438632366
 20
194.6781969102981
 30
0.0
 11
270.7616438632366
 21
197.9407415119431
 31
0.0
  0
LINE
  5
106
330
1F
100
AcDbEntity
  8
0
  6
Continuous
 62
     7
100
AcDbLine
 10
268.0955775669326
 20
212.1781969102949
 30
0.0
 11
268.0955775669326
 21
205.1781969102949
 31
0.0
  0
LINE
  5
107
330
1F
100
AcDbEntity
  8
0
  6
Continuous
 62
     7
100
AcDbLine
 10
270.7616438632339
 20
194.678196910299
 30
0.0
 11
270.7616438632366
 21
194.6781969102981
 31
0.0
  0
LINE
  5
108
330
1F
100
AcDbEntity
  8
0
  6
Continuous
 62
     7
100
AcDbLine
 10
270.8466438632368
 20
194.6781969102981
 30
0.0
 11
275.2712687042848
 21
194.6781969102999
 31
0.0
  0
LINE
  5
109
330
1F
100
AcDbEntity
  8
0
  6
Continuous
 62
     7
100
AcDbLine
 10
265.5955775669235
 20
213.1781969102947
 30
0.0
 11
267.0955775669326
 21
213.1781969102949
 31
0.0
  0
LINE
  5
10A
330
1F
100
AcDbEntity
  8
0
  6
Continuous
 62
     7
100
AcDbLine
 10
267.0955775669335
 20
204.1781969102947
 30
0.0
 11
265.5955775669253
 21
204.1781969102947
 31
0.0
  0
LINE
  5
10B
330
1F
100
AcDbEntity
  8
0
  6
Continuous
 62
     7
100
AcDbLine
 10
265.5955775669289
 20
201.7781969102957
 30
0.0
 11
265.5955775669289
 21
201.6781969102958
 31
0.0
  0
LINE
  5
10C
330
1F
100
AcDbEntity
  8
0
  6
Continuous
 62
     7
100
AcDbLine
 10
261.5398593261106
 20
203.0959796491081
 30
0.0
 11
261.4810808008805
 21
203.0150779496707
 31
0.0
  0
LINE
  5
10D
330
1F
100
AcDbEntity
  8
0
  6
Continuous
 62
     7
100
AcDbLine
 10
265.1072822507194
 20
201.695248558477
 30
0.0
 11
265.1142578980943
 21
201.7950049635028
 31
0.0
  0
LINE
  5
10E
330
1F
100
AcDbEntity
  8
0
  6
Continuous
 62
     7
100
AcDbLine
 10
264.1609869002859
 20
201.9289784652324
 30
0.0
 11
264.1401957312045
 21
201.831163705159
 31
0.0
  0
LINE
  5
10F
330
1F
100
AcDbEntity
  8
0
  6
Continuous
 62
     7
100
AcDbLine
 10
263.2014365636495
 20
202.1003485647943
 30
0.0
 11
263.2356385779821
 21
202.1943178268727
 31
0.0
  0
LINE
  5
110
330
1F
100
AcDbEntity
  8
0
  6
Continuous
 62
     7
100
AcDbLine
 10
262.3562237837058
 20
202.5858585195688
 30
0.0
 11
262.3092766274266
 21
202.4975637602829
 31
0.0
  0
LINE
  5
111
330
1F
100
AcDbEntity
  8
0
  6
Continuous
 62
     7
100
AcDbLine
 10
298.3955775669255
 20
215.6781969102937
 30
0.0
 11
265.595577566928
 21
215.6781969102958
 31
0.0
  0
LINE
  5
112
330
1F
100
AcDbEntity
  8
0
  6
Continuous
 62
     7
100
AcDbLine
 10
265.595577566928
 20
215.6781969102958
 30
0.0
 11
265.595577566928
 21
215.5781969102959
 31
0.0
  0
LINE
  5
113
330
1F
100
AcDbEntity
  8
0
  6
Continuous
 62
     7
100
AcDbLine
 10
264.6352831703024
 20
215.5110465846126
 30
0.0
 11
264.6213658602063
 21
215.6100733914868
 31
0.0
  0
LINE
  5
114
330
1F
100
AcDbEntity
  8
0
  6
Continuous
 62
     7
100
AcDbLine
 10
263.6936798117894
 20
215.3109026122702
 30
0.0
 11
263.6661160762086
 21
215.407028781864
 31
0.0
  0
LINE
  5
115
330
1F
100
AcDbEntity
  8
0
  6
Continuous
 62
     7
100
AcDbLine
 10
262.7484210653965
 20
215.0730151137938
 30
0.0
 11
262.7890947297045
 21
214.9816605680294
 31
0.0
  0
LINE
  5
116
330
1F
100
AcDbEntity
  8
0
  6
Continuous
 62
     7
100
AcDbLine
 10
261.9391346437186
 20
214.5297287737749
 30
0.0
 11
261.8861427172941
 21
214.6145335833903
 31
0.0
  0
LINE
  5
117
330
1F
100
AcDbEntity
  8
0
  6
Continuous
 62
     7
100
AcDbLine
 10
261.1603430600907
 20
213.9639035678162
 30
0.0
 11
261.0960642991212
 21
214.0405080121284
 31
0.0
  0
LINE
  5
118
330
1F
100
AcDbEntity
  8
0
  6
Continuous
 62
     7
100
AcDbLine
 10
258.5998417777936
 20
208.9224933872083
 30
0.0
 11
258.6997808604955
 21
208.9190034375383
 31
0.0
  0
LINE
  5
119
330
1F
100
AcDbEntity
  8
0
  6
Continuous
 62
     7
100
AcDbLine
 10
258.5338851352225
 20
210.5281969102921
 30
0.0
 11
258.8444665472506
 21
210.5281969102921
 31
0.0
  0
LINE
  5
11A
330
1F
100
AcDbEntity
  8
0
  6
Continuous
 62
     7
100
AcDbLine
 10
258.8004040711438
 20
209.8763693361927
 30
0.0
 11
258.7019232958427
 21
209.8937341539595
 31
0.0
  0
LINE
  5
11B
330
1F
100
AcDbEntity
  8
0
  6
Continuous
 62
     7
100
AcDbLine
 10
258.8749005177015
 20
205.8281969102927
 30
0.0
 11
259.3116695472327
 21
205.8281969102922
 31
0.0
  0
LINE
  5
11C
330
1F
100
AcDbEntity
  8
0
  6
Continuous
 62
     7
100
AcDbLine
 10
258.9381819528617
 20
210.8413158709154
 30
0.0
 11
259.0332876044903
 21
210.810414171478
 31
0.0
  0
LINE
  5
11D
330
1F
100
AcDbEntity
  8
0
  6
Continuous
 62
     7
100
AcDbLine
 10
259.1980089704174
 20
206.0934114157212
 30
0.0
 11
259.105290584961
 21
206.0559507563794
 31
0.0
  0
LINE
  5
11E
330
1F
100
AcDbEntity
  8
0
  6
Continuous
 62
     7
100
AcDbLine
 10
258.8035074829958
 20
206.9847436410932
 30
0.0
 11
258.9005370556241
 21
207.0089358306532
 31
0.0
  0
LINE
  5
11F
330
1F
100
AcDbEntity
  8
0
  6
Continuous
 62
     7
100
AcDbLine
 10
258.7333764888862
 20
207.9569505137442
 30
0.0
 11
258.6339242993498
 21
207.9464976674173
 31
0.0
  0
LINE
  5
120
330
1F
100
AcDbEntity
  8
0
  6
Continuous
 62
     7
100
AcDbLine
 10
260.0795022916817
 20
204.3685665830114
 30
0.0
 11
260.1583033670412
 21
204.4301327305441
 31
0.0
  0
LINE
  5
121
330
1F
100
AcDbEntity
  8
0
  6
Continuous
 62
     7
100
AcDbLine
 10
259.332391476766
 20
204.9281969102908
 30
0.0
 11
259.684782358161
 21
204.9281969102908
 31
0.0
  0
LINE
  5
122
330
1F
100
AcDbEntity
  8
0
  6
Continuous
 62
     7
100
AcDbLine
 10
259.5955775669353
 20
205.2140952951563
 30
0.0
 11
259.6200022808152
 21
205.228196910291
 31
0.0
  0
LINE
  5
123
330
1F
100
AcDbEntity
  8
0
  6
Continuous
 62
     7
100
AcDbLine
 10
259.5333997404368
 20
205.1781969102908
 30
0.0
 11
259.5955775669353
 21
205.2140952951563
 31
0.0
  0
LINE
  5
124
330
1F
100
AcDbEntity
  8
0
  6
Continuous
 62
     7
100
AcDbLine
 10
259.5955775669353
 20
205.2140952951563
 30
0.0
 11
259.5955775669353
 21
205.2708519027974
 31
0.0
  0
LINE
  5
125
330
1F
100
AcDbEntity
  8
0
  6
Continuous
 62
     7
100
AcDbLine
 10
260.802434810762
 20
203.7147522879586
 30
0.0
 11
260.7329689737161
 21
203.6428183079247
 31
0.0
  0
LINE
  5
126
330
1F
100
AcDbEntity
  8
0
  6
Continuous
 62
     7
100
AcDbLine
 10
258.8333663901011
 20
211.4281969102924
 30
0.0
 11
259.2672681560342
 21
211.4281969102926
 31
0.0
  0
LINE
  5
127
330
1F
100
AcDbEntity
  8
0
  6
Continuous
 62
     7
100
AcDbLine
 10
259.3040192428333
 20
211.7467949378147
 30
0.0
 11
259.393898647464
 21
211.7029578231356
 31
0.0
  0
LINE
  5
128
330
1F
100
AcDbEntity
  8
0
  6
Continuous
 62
     7
100
AcDbLine
 10
259.332391476766
 20
212.4281969102921
 30
0.0
 11
259.6847823581592
 21
212.4281969102921
 31
0.0
  0
LINE
  5
129
330
1F
100
AcDbEntity
  8
0
  6
Continuous
 62
     7
100
AcDbLine
 10
259.8752183162977
 20
212.5366279442391
 30
0.0
 11
259.7923145590411
 21
212.5925472345864
 31
0.0
  0
LINE
  5
12A
330
1F
100
AcDbEntity
  8
0
  6
Continuous
 62
     7
100
AcDbLine
 10
260.4678782711334
 20
213.2951980941714
 30
0.0
 11
260.393563788586
 21
213.3621111548073
 31
0.0
  0
LINE
  5
12B
330
1F
100
AcDbEntity
  8
0
  6
Continuous
 62
     7
100
AcDbLine
 10
258.357656594715
 20
207.7281969102923
 30
0.0
 11
258.7612890158051
 21
207.7281969102923
 31
0.0
  0
LINE
  5
12C
330
1F
100
AcDbEntity
  8
0
  6
Continuous
 62
     7
100
AcDbLine
 10
258.2957488018127
 20
208.6281969102924
 30
0.0
 11
258.595756140634
 21
208.6281969102924
 31
0.0
  0
LINE
  5
12D
330
1F
100
AcDbEntity
  8
0
  6
Continuous
 62
     7
100
AcDbLine
 10
299.9398663371502
 20
194.678196910299
 30
0.0
 11
315.5575662356278
 21
194.678196910299
 31
0.0
  0
LINE
  5
12E
330
1F
100
AcDbEntity
  8
1
  6
DOT_CENTER
 62
     2
100
AcDbLine
 10
497.9776300529289
 20
179.7981276849841
 30
0.0
 11
497.9776300529289
 21
168.6541151959623
 31
0.0
  0
LINE
  5
12F
330
1F
100
AcDbEntity
  8
1
  6
DOT_CENTER
 62
     2
100
AcDbLine
 10
465.9776300529289
 20
179.7981276849841
 30
0.0
 11
465.9776300529289
 21
168.6541151959623
 31
0.0
  0
LINE
  5
130
330
1F
100
AcDbEntity
  8
1
  6
DOT_CENTER
 62
     2
100
AcDbLine
 10
349.2487162863899
 20
179.7981276849884
 30
0.0
 11
349.2487162863899
 21
168.6541151959666
 31
0.0
  0
LINE
  5
131
330
1F
100
AcDbEntity
  8
1
  6
DOT_CENTER
 62
     2
100
AcDbLine
 10
266.2487162863899
 20
179.7981276849884
 30
0.0
 11
266.2487162863899
 21
168.6541151959664
 31
0.0
  0
LINE
  5
132
330
1F
100
AcDbEntity
  8
0
  6
Continuous
 62
     7
100
AcDbLine
 10
299.8955775669228
 20
211.6781969102985
 30
0.0
 11
299.8955775669238
 21
210.1962147924207
 31
0.0
  0
LINE
  5
133
330
1F
100
AcDbEntity
  8
0
  6
Continuous
 62
     7
100
AcDbLine
 10
292.0608672738016
 20
208.6792340951649
 30
0.0
 11
283.8631018498218
 21
200.1403362425367
 31
0.0
  0
LINE
  5
134
330
1F
100
AcDbEntity
  8
0
  6
Continuous
 62
     7
100
AcDbLine
 10
278.6439591986981
 20
213.1781969102962
 30
0.0
 11
298.3955775669228
 21
213.1781969102983
 31
0.0
  0
LINE
  5
135
330
1F
100
AcDbEntity
  8
0
  6
Continuous
 62
     7
100
AcDbLine
 10
317.1018550058562
 20
213.1781969102983
 30
0.0
 11
336.8534733740818
 21
213.1781969102962
 31
0.0
  0
LINE
  5
136
330
1F
100
AcDbEntity
  8
0
  6
Continuous
 62
     7
100
AcDbLine
 10
331.6343307229573
 20
200.1403362425367
 30
0.0
 11
323.4365652989783
 21
208.6792340951649
 31
0.0
  0
LINE
  5
137
330
1F
100
AcDbEntity
  8
0
  6
Continuous
 62
     7
100
AcDbLine
 10
315.6018550058562
 20
210.1962147924207
 30
0.0
 11
315.6018550058562
 21
211.6781969102985
 31
0.0
  0
LINE
  5
138
330
1F
100
AcDbEntity
  8
0
  6
Continuous
 62
     7
100
AcDbLine
 10
356.9016764321451
 20
208.6281969102924
 30
0.0
 11
357.2016837709663
 21
208.6281969102924
 31
0.0
  0
LINE
  5
139
330
1F
100
AcDbEntity
  8
0
  6
Continuous
 62
     7
100
AcDbLine
 10
356.7361435569729
 20
207.7281969102923
 30
0.0
 11
357.1397759780649
 21
207.7281969102923
 31
0.0
  0
LINE
  5
13A
330
1F
100
AcDbEntity
  8
0
  6
Continuous
 62
     7
100
AcDbLine
 10
355.1038687841939
 20
213.3621111548073
 30
0.0
 11
355.0295543016465
 21
213.2951980941714
 31
0.0
  0
LINE
  5
13B
330
1F
100
AcDbEntity
  8
0
  6
Continuous
 62
     7
100
AcDbLine
 10
355.705118013737
 20
212.5925472345864
 30
0.0
 11
355.6222142564812
 21
212.5366279442391
 31
0.0
  0
LINE
  5
13C
330
1F
100
AcDbEntity
  8
0
  6
Continuous
 62
     7
100
AcDbLine
 10
355.8126502146207
 20
212.4281969102921
 30
0.0
 11
356.1650410960137
 21
212.4281969102921
 31
0.0
  0
LINE
  5
13D
330
1F
100
AcDbEntity
  8
0
  6
Continuous
 62
     7
100
AcDbLine
 10
356.1035339253159
 20
211.7029578231356
 30
0.0
 11
356.1934133299466
 21
211.7467949378147
 31
0.0
  0
LINE
  5
13E
330
1F
100
AcDbEntity
  8
0
  6
Continuous
 62
     7
100
AcDbLine
 10
356.2301644167438
 20
211.4281969102926
 30
0.0
 11
356.6640661826788
 21
211.4281969102924
 31
0.0
  0
LINE
  5
13F
330
1F
100
AcDbEntity
  8
0
  6
Continuous
 62
     7
100
AcDbLine
 10
354.7644635990638
 20
203.6428183079247
 30
0.0
 11
354.694997762018
 21
203.7147522879586
 31
0.0
  0
LINE
  5
140
330
1F
100
AcDbEntity
  8
0
  6
Continuous
 62
     7
100
AcDbLine
 10
355.9018550058446
 20
205.2708519027974
 30
0.0
 11
355.9018550058446
 21
205.2140952951563
 31
0.0
  0
LINE
  5
141
330
1F
100
AcDbEntity
  8
0
  6
Continuous
 62
     7
100
AcDbLine
 10
355.9018550058446
 20
205.2140952951563
 30
0.0
 11
355.9640328323422
 21
205.1781969102908
 31
0.0
  0
LINE
  5
142
330
1F
100
AcDbEntity
  8
0
  6
Continuous
 62
     7
100
AcDbLine
 10
355.8774302919647
 20
205.228196910291
 30
0.0
 11
355.9018550058446
 21
205.2140952951563
 31
0.0
  0
LINE
  5
143
330
1F
100
AcDbEntity
  8
0
  6
Continuous
 62
     7
100
AcDbLine
 10
355.8126502146189
 20
204.9281969102908
 30
0.0
 11
356.1650410960137
 21
204.9281969102908
 31
0.0
  0
LINE
  5
144
330
1F
100
AcDbEntity
  8
0
  6
Continuous
 62
     7
100
AcDbLine
 10
355.3391292057369
 20
204.4301327305441
 30
0.0
 11
355.4179302810982
 21
204.3685665830114
 31
0.0
  0
LINE
  5
145
330
1F
100
AcDbEntity
  8
0
  6
Continuous
 62
     7
100
AcDbLine
 10
356.863508273429
 20
207.9464976674173
 30
0.0
 11
356.7640560838919
 21
207.9569505137442
 31
0.0
  0
LINE
  5
146
330
1F
100
AcDbEntity
  8
0
  6
Continuous
 62
     7
100
AcDbLine
 10
356.5968955171556
 20
207.0089358306532
 30
0.0
 11
356.6939250897832
 21
206.9847436410932
 31
0.0
  0
LINE
  5
147
330
1F
100
AcDbEntity
  8
0
  6
Continuous
 62
     7
100
AcDbLine
 10
356.392141987818
 20
206.0559507563794
 30
0.0
 11
356.2994236023625
 21
206.0934114157212
 31
0.0
  0
LINE
  5
148
330
1F
100
AcDbEntity
  8
0
  6
Continuous
 62
     7
100
AcDbLine
 10
356.4641449682878
 20
210.810414171478
 30
0.0
 11
356.5592506199174
 21
210.8413158709154
 31
0.0
  0
LINE
  5
149
330
1F
100
AcDbEntity
  8
0
  6
Continuous
 62
     7
100
AcDbLine
 10
356.1857630255473
 20
205.8281969102922
 30
0.0
 11
356.6225320550776
 21
205.8281969102927
 31
0.0
  0
LINE
  5
14A
330
1F
100
AcDbEntity
  8
0
  6
Continuous
 62
     7
100
AcDbLine
 10
356.7955092769372
 20
209.8937341539595
 30
0.0
 11
356.6970285016359
 21
209.8763693361927
 31
0.0
  0
LINE
  5
14B
330
1F
100
AcDbEntity
  8
0
  6
Continuous
 62
     7
100
AcDbLine
 10
356.6529660255293
 20
210.5281969102921
 30
0.0
 11
356.9635474375574
 21
210.5281969102921
 31
0.0
  0
LINE
  5
14C
330
1F
100
AcDbEntity
  8
0
  6
Continuous
 62
     7
100
AcDbLine
 10
356.7976517122835
 20
208.9190034375383
 30
0.0
 11
356.8975907949854
 21
208.9224933872083
 31
0.0
  0
LINE
  5
14D
330
1F
100
AcDbEntity
  8
0
  6
Continuous
 62
     7
100
AcDbLine
 10
354.4013682736587
 20
214.0405080121284
 30
0.0
 11
354.3370895126892
 21
213.9639035678162
 31
0.0
  0
LINE
  5
14E
330
1F
100
AcDbEntity
  8
0
  6
Continuous
 62
     7
100
AcDbLine
 10
353.6112898554839
 20
214.6145335833903
 30
0.0
 11
353.5582979290613
 21
214.5297287737749
 31
0.0
  0
LINE
  5
14F
330
1F
100
AcDbEntity
  8
0
  6
Continuous
 62
     7
100
AcDbLine
 10
352.7083378430752
 20
214.9816605680294
 30
0.0
 11
352.7490115073834
 21
215.0730151137938
 31
0.0
  0
LINE
  5
150
330
1F
100
AcDbEntity
  8
0
  6
Continuous
 62
     7
100
AcDbLine
 10
351.8313164965713
 20
215.407028781864
 30
0.0
 11
351.8037527609896
 21
215.3109026122702
 31
0.0
  0
LINE
  5
151
330
1F
100
AcDbEntity
  8
0
  6
Continuous
 62
     7
100
AcDbLine
 10
350.8760667125725
 20
215.6100733914868
 30
0.0
 11
350.8621494024766
 21
215.5110465846126
 31
0.0
  0
LINE
  5
152
330
1F
100
AcDbEntity
  8
0
  6
Continuous
 62
     7
100
AcDbLine
 10
349.9018550058519
 20
215.5781969102959
 30
0.0
 11
349.9018550058519
 21
215.6781969102958
 31
0.0
  0
LINE
  5
153
330
1F
100
AcDbEntity
  8
0
  6
Continuous
 62
     7
100
AcDbLine
 10
349.9018550058519
 20
215.6781969102958
 30
0.0
 11
317.1018550058535
 21
215.6781969102937
 31
0.0
  0
LINE
  5
154
330
1F
100
AcDbEntity
  8
0
  6
Continuous
 62
     7
100
AcDbLine
 10
353.1881559453524
 20
202.4975637602829
 30
0.0
 11
353.1412087890732
 21
202.5858585195688
 31
0.0
  0
LINE
  5
155
330
1F
100
AcDbEntity
  8
0
  6
Continuous
 62
     7
100
AcDbLine
 10
352.2617939947978
 20
202.1943178268727
 30
0.0
 11
352.2959960091304
 21
202.1003485647943
 31
0.0
  0
LINE
  5
156
330
1F
100
AcDbEntity
  8
0
  6
Continuous
 62
     7
100
AcDbLine
 10
351.3572368415754
 20
201.831163705159
 30
0.0
 11
351.3364456724931
 21
201.9289784652324
 31
0.0
  0
LINE
  5
157
330
1F
100
AcDbEntity
  8
0
  6
Continuous
 62
     7
100
AcDbLine
 10
350.3831746746856
 20
201.7950049635028
 30
0.0
 11
350.3901503220596
 21
201.695248558477
 31
0.0
  0
LINE
  5
158
330
1F
100
AcDbEntity
  8
0
  6
Continuous
 62
     7
100
AcDbLine
 10
354.0163517718985
 20
203.0150779496707
 30
0.0
 11
353.9575732466684
 21
203.0959796491081
 31
0.0
  0
LINE
  5
159
330
1F
100
AcDbEntity
  8
0
  6
Continuous
 62
     7
100
AcDbLine
 10
349.9018550058499
 20
201.6781969102958
 30
0.0
 11
349.9018550058499
 21
201.7781969102957
 31
0.0
  0
LINE
  5
15A
330
1F
100
AcDbEntity
  8
0
  6
Continuous
 62
     7
100
AcDbLine
 10
349.9018550058546
 20
204.1781969102947
 30
0.0
 11
348.4018550058455
 21
204.1781969102947
 31
0.0
  0
LINE
  5
15B
330
1F
100
AcDbEntity
  8
0
  6
Continuous
 62
     7
100
AcDbLine
 10
348.4018550058473
 20
213.1781969102949
 30
0.0
 11
349.9018550058555
 21
213.1781969102947
 31
0.0
  0
LINE
  5
15C
330
1F
100
AcDbEntity
  8
0
  6
Continuous
 62
     7
100
AcDbLine
 10
340.2261638684951
 20
194.6781969102999
 30
0.0
 11
344.6507887095423
 21
194.6781969102981
 31
0.0
  0
LINE
  5
15D
330
1F
100
AcDbEntity
  8
0
  6
Continuous
 62
     7
100
AcDbLine
 10
344.7357887095433
 20
194.6781969102981
 30
0.0
 11
344.7357887095451
 21
194.678196910299
 31
0.0
  0
LINE
  5
15E
330
1F
100
AcDbEntity
  8
0
  6
Continuous
 62
     7
100
AcDbLine
 10
347.4018550058464
 20
205.1781969102949
 30
0.0
 11
347.4018550058473
 21
212.1781969102949
 31
0.0
  0
LINE
  5
15F
330
1F
100
AcDbEntity
  8
0
  6
Continuous
 62
     7
100
AcDbLine
 10
344.7357887095433
 20
197.9407415119431
 30
0.0
 11
344.7357887095433
 21
194.6781969102981
 31
0.0
  0
LINE
  5
160
330
1F
100
AcDbEntity
  8
0
  6
Continuous
 62
     7
100
AcDbLine
 10
344.7357887095433
 20
197.9407415119431
 30
0.0
 11
349.9018550058499
 21
201.6781969102958
 31
0.0
  0
LINE
  5
161
330
1F
100
AcDbEntity
  8
0
  6
Continuous
 62
     7
100
AcDbLine
 10
340.2261638684951
 20
194.6781969102999
 30
0.0
 11
344.6507887095423
 21
197.8792471968029
 31
0.0
  0
LINE
  5
162
330
1F
100
AcDbEntity
  8
0
  6
Continuous
 62
     7
100
AcDbLine
 10
324.0209536671374
 20
200.178196910299
 30
0.0
 11
324.0265697806209
 21
200.1627667653185
 31
0.0
  0
LINE
  5
163
330
1F
100
AcDbEntity
  8
0
  6
Continuous
 62
     7
100
AcDbLine
 10
318.4070125989748
 20
206.3796295750514
 30
0.0
 11
318.6640326562848
 21
206.5343573687485
 31
0.0
  0
LINE
  5
164
330
1F
100
AcDbEntity
  8
0
  6
Continuous
 62
     7
100
AcDbLine
 10
313.1018550058535
 20
209.3781969102952
 30
0.0
 11
313.1018550058535
 21
211.6781969102937
 31
0.0
  0
LINE
  5
165
330
1F
100
AcDbEntity
  8
0
  6
Continuous
 62
     7
100
AcDbLine
 10
317.2491673263558
 20
189.039487287489
 30
0.0
 11
318.5695635534304
 21
189.8018184046273
 31
0.0
  0
LINE
  5
166
330
1F
100
AcDbEntity
  8
0
  6
Continuous
 62
     7
100
AcDbLine
 10
320.2052423892793
 20
187.021887526575
 30
0.0
 11
320.2098161741425
 21
186.8909114647961
 31
0.0
  0
LINE
  5
167
330
1F
100
AcDbEntity
  8
0
  6
Continuous
 62
     7
100
AcDbLine
 10
322.7838938375581
 20
186.8909114647961
 30
0.0
 11
322.7898233304514
 21
187.0607099251283
 31
0.0
  0
LINE
  5
168
330
1F
100
AcDbEntity
  8
0
  6
Continuous
 62
     7
100
AcDbLine
 10
322.7898233304514
 20
187.0607099251283
 30
0.0
 11
322.8468550058507
 21
188.6938834269949
 31
0.0
  0
LINE
  5
169
330
1F
100
AcDbEntity
  8
0
  6
Continuous
 62
     7
100
AcDbLine
 10
320.1695635534306
 20
187.0305371125173
 30
0.0
 11
319.2112640829691
 21
186.4772626552828
 31
0.0
  0
LINE
  5
16A
330
1F
100
AcDbEntity
  8
0
  6
Continuous
 62
     7
100
AcDbLine
 10
340.2261638684951
 20
194.6781969102999
 30
0.0
 11
326.2979858641621
 21
184.6016819982246
 31
0.0
  0
LINE
  5
16B
330
1F
100
AcDbEntity
  8
0
  6
Continuous
 62
     7
100
AcDbLine
 10
320.1468550058507
 20
188.6938834269949
 30
0.0
 11
320.2052423892793
 21
187.021887526575
 31
0.0
  0
LINE
  5
16C
330
1F
100
AcDbEntity
  8
0
  6
Continuous
 62
     7
100
AcDbLine
 10
322.1571172957375
 20
205.2990452542767
 30
0.0
 11
324.0209536671374
 21
200.178196910299
 31
0.0
  0
LINE
  5
16D
330
1F
100
AcDbEntity
  8
0
  6
Continuous
 62
     7
100
AcDbLine
 10
344.6507887095423
 20
194.6781969102981
 30
0.0
 11
344.7357887095433
 21
194.6781969102981
 31
0.0
  0
LINE
  5
16E
330
1F
100
AcDbEntity
  8
0
  6
Continuous
 62
     7
100
AcDbLine
 10
344.6507887095423
 20
197.8792471968029
 30
0.0
 11
344.7357887095433
 21
197.9407415119431
 31
0.0
  0
LINE
  5
16F
330
1F
100
AcDbEntity
  8
0
  6
Continuous
 62
     7
100
AcDbLine
 10
267.6689399535034
 20
200.178196910299
 30
0.0
 11
270.7616438632366
 21
197.9407415119431
 31
0.0
  0
LINE
  5
170
330
1F
100
AcDbEntity
  8
0
  6
Continuous
 62
     7
100
AcDbLine
 10
510.9776300529235
 20
215.6100733914868
 30
0.0
 11
510.9776300529235
 21
214.1353720724366
 31
0.0
  0
LINE
  5
171
330
1F
100
AcDbEntity
  8
0
  6
Continuous
 62
     7
100
AcDbLine
 10
484.6623088046559
 20
212.4281969102917
 30
0.0
 11
488.9924358235791
 21
204.9281969102924
 31
0.0
  0
LINE
  5
172
330
1F
100
AcDbEntity
  8
0
  6
Continuous
 62
     7
100
AcDbLine
 10
479.2929513011928
 20
204.9281969102917
 30
0.0
 11
474.9628242822697
 21
212.4281969102908
 31
0.0
  0
LINE
  5
173
330
1F
100
AcDbEntity
  8
0
  6
Continuous
 62
     7
100
AcDbLine
 10
488.9924358235791
 20
205.8281969102927
 30
0.0
 11
485.1819240469273
 21
212.4281969102917
 31
0.0
  0
LINE
  5
174
330
1F
100
AcDbEntity
  8
0
  6
Continuous
 62
     7
100
AcDbLine
 10
488.9924358235791
 20
204.9281969102924
 30
0.0
 11
484.8932489123332
 21
204.9281969102919
 31
0.0
  0
LINE
  5
175
330
1F
100
AcDbEntity
  8
0
  6
Continuous
 62
     7
100
AcDbLine
 10
452.9776300529253
 20
205.1781969102885
 30
0.0
 11
474.4628242822715
 21
205.178196910291
 31
0.0
  0
LINE
  5
176
330
1F
100
AcDbEntity
  8
0
  6
Continuous
 62
     7
100
AcDbLine
 10
474.4628242822715
 20
205.178196910291
 30
0.0
 11
474.4628242822715
 21
204.3685665830116
 31
0.0
  0
LINE
  5
177
330
1F
100
AcDbEntity
  8
0
  6
Continuous
 62
     7
100
AcDbLine
 10
452.9776300529262
 20
204.3685665830091
 30
0.0
 11
474.4628242822715
 21
204.3685665830116
 31
0.0
  0
LINE
  5
178
330
1F
100
AcDbEntity
  8
0
  6
Continuous
 62
     7
100
AcDbLine
 10
485.5631418295767
 20
206.0884854785893
 30
0.0
 11
486.0131418295756
 21
206.8679083419952
 31
0.0
  0
LINE
  5
179
330
1F
100
AcDbEntity
  8
0
  6
Continuous
 62
     7
100
AcDbLine
 10
489.4924358235791
 20
205.1781969102926
 30
0.0
 11
489.4924358235791
 21
204.3685665830132
 31
0.0
  0
LINE
  5
17A
330
1F
100
AcDbEntity
  8
0
  6
Continuous
 62
     7
100
AcDbLine
 10
476.0597897937311
 20
204.9281969102915
 30
0.0
 11
474.9628242822715
 21
206.8281969102909
 31
0.0
  0
LINE
  5
17B
330
1F
100
AcDbEntity
  8
0
  6
Continuous
 62
     7
100
AcDbLine
 10
483.911753454711
 20
205.8281969102922
 30
0.0
 11
484.4373088046565
 21
206.7384854785891
 31
0.0
  0
LINE
  5
17C
330
1F
100
AcDbEntity
  8
0
  6
Continuous
 62
     7
100
AcDbLine
 10
479.8703015703828
 20
205.0281969102916
 30
0.0
 11
480.3321817857346
 21
205.8281969102918
 31
0.0
  0
LINE
  5
17D
330
1F
100
AcDbEntity
  8
0
  6
Continuous
 62
     7
100
AcDbLine
 10
482.3529077278987
 20
204.9281969102921
 30
0.0
 11
481.8332924856283
 21
204.9281969102921
 31
0.0
  0
LINE
  5
17E
330
1F
100
AcDbEntity
  8
0
  6
Continuous
 62
     7
100
AcDbLine
 10
480.7940620010874
 20
204.9281969102915
 30
0.0
 11
479.2929513011928
 21
204.9281969102917
 31
0.0
  0
LINE
  5
17F
330
1F
100
AcDbEntity
  8
0
  6
Continuous
 62
     7
100
AcDbLine
 10
479.8703015703828
 20
205.0281969102916
 30
0.0
 11
479.7548315165446
 21
205.0281969102914
 31
0.0
  0
LINE
  5
180
330
1F
100
AcDbEntity
  8
0
  6
Continuous
 62
     7
100
AcDbLine
 10
478.7733360589233
 20
204.9281969102915
 30
0.0
 11
477.6763705474629
 21
204.9281969102912
 31
0.0
  0
LINE
  5
181
330
1F
100
AcDbEntity
  8
0
  6
Continuous
 62
     7
100
AcDbLine
 10
477.1567553051924
 20
204.9281969102915
 30
0.0
 11
476.0597897937311
 21
204.9281969102915
 31
0.0
  0
LINE
  5
182
330
1F
100
AcDbEntity
  8
0
  6
Continuous
 62
     7
100
AcDbLine
 10
474.9628242822715
 20
205.928196910291
 30
0.0
 11
475.5401745514615
 21
204.9281969102908
 31
0.0
  0
LINE
  5
183
330
1F
100
AcDbEntity
  8
0
  6
Continuous
 62
     7
100
AcDbLine
 10
474.9628242822715
 20
204.9281969102908
 30
0.0
 11
474.9628242822715
 21
205.928196910291
 31
0.0
  0
LINE
  5
184
330
1F
100
AcDbEntity
  8
0
  6
Continuous
 62
     7
100
AcDbLine
 10
475.5401745514615
 20
204.9281969102908
 30
0.0
 11
474.9628242822715
 21
204.9281969102908
 31
0.0
  0
LINE
  5
185
330
1F
100
AcDbEntity
  8
0
  6
Continuous
 62
     7
100
AcDbLine
 10
485.4128641546037
 20
205.8281969102925
 30
0.0
 11
483.911753454711
 21
205.8281969102922
 31
0.0
  0
LINE
  5
186
330
1F
100
AcDbEntity
  8
0
  6
Continuous
 62
     7
100
AcDbLine
 10
484.4373088046565
 20
206.7384854785891
 30
0.0
 11
485.5631418295767
 21
206.0884854785893
 31
0.0
  0
LINE
  5
187
330
1F
100
AcDbEntity
  8
0
  6
Continuous
 62
     7
100
AcDbLine
 10
484.8932489123332
 20
204.9281969102919
 30
0.0
 11
485.4128641546037
 21
205.8281969102925
 31
0.0
  0
LINE
  5
188
330
1F
100
AcDbEntity
  8
0
  6
Continuous
 62
     7
100
AcDbLine
 10
489.4924358235791
 20
205.1781969102926
 30
0.0
 11
510.9776300529253
 21
205.1781969102953
 31
0.0
  0
LINE
  5
189
330
1F
100
AcDbEntity
  8
0
  6
Continuous
 62
     7
100
AcDbLine
 10
489.4924358235791
 20
204.3685665830132
 30
0.0
 11
510.9776300529262
 21
204.3685665830157
 31
0.0
  0
LINE
  5
18A
330
1F
100
AcDbEntity
  8
0
  6
Continuous
 62
     7
100
AcDbLine
 10
510.9776300529262
 20
201.6781969102958
 30
0.0
 11
452.9776300529262
 21
201.6781969102894
 31
0.0
  0
LINE
  5
18B
330
1F
100
AcDbEntity
  8
0
  6
Continuous
 62
     7
100
AcDbLine
 10
489.4924358235782
 20
212.5925472345882
 30
0.0
 11
489.4924358235782
 21
211.7467949378165
 31
0.0
  0
LINE
  5
18C
330
1F
100
AcDbEntity
  8
0
  6
Continuous
 62
     7
100
AcDbLine
 10
510.9776300529235
 20
212.5925472345905
 30
0.0
 11
489.4924358235782
 21
212.5925472345882
 31
0.0
  0
LINE
  5
18D
330
1F
100
AcDbEntity
  8
0
  6
Continuous
 62
     7
100
AcDbLine
 10
479.0042761665978
 20
212.428196910291
 30
0.0
 11
474.9628242822697
 21
212.4281969102908
 31
0.0
  0
LINE
  5
18E
330
1F
100
AcDbEntity
  8
0
  6
Continuous
 62
     7
100
AcDbLine
 10
474.4628242822697
 20
212.5925472345864
 30
0.0
 11
452.9776300529235
 21
212.5925472345839
 31
0.0
  0
LINE
  5
18F
330
1F
100
AcDbEntity
  8
0
  6
Continuous
 62
     7
100
AcDbLine
 10
474.4628242822697
 20
212.5925472345864
 30
0.0
 11
474.4628242822697
 21
211.7467949378147
 31
0.0
  0
LINE
  5
190
330
1F
100
AcDbEntity
  8
0
  6
Continuous
 62
     7
100
AcDbLine
 10
510.9776300529235
 20
211.7467949378188
 30
0.0
 11
489.4924358235782
 21
211.7467949378165
 31
0.0
  0
LINE
  5
191
330
1F
100
AcDbEntity
  8
0
  6
Continuous
 62
     7
100
AcDbLine
 10
474.9628242822715
 20
209.6281969102906
 30
0.0
 11
474.9628242822715
 21
211.5281969102907
 31
0.0
  0
LINE
  5
192
330
1F
100
AcDbEntity
  8
0
  6
Continuous
 62
     7
100
AcDbLine
 10
489.4924358235791
 20
208.9224933872103
 30
0.0
 11
510.9776300529253
 21
208.9224933872103
 31
0.0
  0
LINE
  5
193
330
1F
100
AcDbEntity
  8
0
  6
Continuous
 62
     7
100
AcDbLine
 10
474.9628242822715
 20
208.728196910291
 30
0.0
 11
477.1567553051924
 21
204.9281969102915
 31
0.0
  0
LINE
  5
194
330
1F
100
AcDbEntity
  8
0
  6
Continuous
 62
     7
100
AcDbLine
 10
474.9628242822715
 20
211.5281969102907
 30
0.0
 11
478.7733360589233
 21
204.9281969102915
 31
0.0
  0
LINE
  5
195
330
1F
100
AcDbEntity
  8
0
  6
Continuous
 62
     7
100
AcDbLine
 10
481.8332924856283
 20
204.9281969102921
 30
0.0
 11
485.1530565334675
 21
210.6781969102919
 31
0.0
  0
LINE
  5
196
330
1F
100
AcDbEntity
  8
0
  6
Continuous
 62
     7
100
AcDbLine
 10
485.4128641546027
 20
210.2281969102919
 30
0.0
 11
482.3529077278987
 21
204.9281969102921
 31
0.0
  0
LINE
  5
197
330
1F
100
AcDbEntity
  8
0
  6
Continuous
 62
     7
100
AcDbLine
 10
486.2788895583868
 20
212.4281969102919
 30
0.0
 11
488.9924358235791
 21
207.7281969102926
 31
0.0
  0
LINE
  5
198
330
1F
100
AcDbEntity
  8
0
  6
Continuous
 62
     7
100
AcDbLine
 10
477.7629730878413
 20
208.478196910291
 30
0.0
 11
480.0435066511387
 21
212.4281969102912
 31
0.0
  0
LINE
  5
199
330
1F
100
AcDbEntity
  8
0
  6
Continuous
 62
     7
100
AcDbLine
 10
480.5631218934101
 20
212.4281969102915
 30
0.0
 11
478.0227807089765
 21
208.0281969102911
 31
0.0
  0
LINE
  5
19A
330
1F
100
AcDbEntity
  8
0
  6
Continuous
 62
     7
100
AcDbLine
 10
478.0227807089765
 20
208.0281969102911
 30
0.0
 11
479.7548315165446
 21
205.0281969102914
 31
0.0
  0
LINE
  5
19B
330
1F
100
AcDbEntity
  8
0
  6
Continuous
 62
     7
100
AcDbLine
 10
480.3321817857346
 20
205.8281969102918
 30
0.0
 11
479.0620111935174
 21
208.0281969102914
 31
0.0
  0
LINE
  5
19C
330
1F
100
AcDbEntity
  8
0
  6
Continuous
 62
     7
100
AcDbLine
 10
479.0620111935174
 20
208.0281969102914
 30
0.0
 11
481.602352377951
 21
212.4281969102915
 31
0.0
  0
LINE
  5
19D
330
1F
100
AcDbEntity
  8
0
  6
Continuous
 62
     7
100
AcDbLine
 10
482.1219676202223
 20
212.4281969102915
 30
0.0
 11
479.5816264357878
 21
208.0281969102914
 31
0.0
  0
LINE
  5
19E
330
1F
100
AcDbEntity
  8
0
  6
Continuous
 62
     7
100
AcDbLine
 10
480.1012416780592
 20
207.1281969102915
 30
0.0
 11
481.9776300529253
 21
210.3781969102915
 31
0.0
  0
LINE
  5
19F
330
1F
100
AcDbEntity
  8
0
  6
Continuous
 62
     7
100
AcDbLine
 10
481.9776300529253
 20
208.6781969102915
 30
0.0
 11
483.4498732393582
 21
209.5281969102918
 31
0.0
  0
LINE
  5
1A0
330
1F
100
AcDbEntity
  8
0
  6
Continuous
 62
     7
100
AcDbLine
 10
488.9924358235791
 20
208.6281969102924
 30
0.0
 11
486.7985048006582
 21
212.4281969102921
 31
0.0
  0
LINE
  5
1A1
330
1F
100
AcDbEntity
  8
0
  6
Continuous
 62
     7
100
AcDbLine
 10
486.68303474682
 20
208.0281969102923
 30
0.0
 11
485.4128641546027
 21
210.2281969102919
 31
0.0
  0
LINE
  5
1A2
330
1F
100
AcDbEntity
  8
0
  6
Continuous
 62
     7
100
AcDbLine
 10
485.4128641546027
 20
208.4281969102921
 30
0.0
 11
486.1634195045505
 21
207.1281969102924
 31
0.0
  0
LINE
  5
1A3
330
1F
100
AcDbEntity
  8
0
  6
Continuous
 62
     7
100
AcDbLine
 10
486.0131418295756
 20
206.8679083419952
 30
0.0
 11
484.8873088046572
 21
207.5179083419948
 31
0.0
  0
LINE
  5
1A4
330
1F
100
AcDbEntity
  8
0
  6
Continuous
 62
     7
100
AcDbLine
 10
488.9924358235782
 20
211.4281969102924
 30
0.0
 11
488.4150855543891
 21
212.4281969102924
 31
0.0
  0
LINE
  5
1A5
330
1F
100
AcDbEntity
  8
0
  6
Continuous
 62
     7
100
AcDbLine
 10
487.8954703121177
 20
212.4281969102921
 30
0.0
 11
486.7985048006582
 21
212.4281969102921
 31
0.0
  0
LINE
  5
1A6
330
1F
100
AcDbEntity
  8
0
  6
Continuous
 62
     7
100
AcDbLine
 10
488.9924358235782
 20
212.4281969102924
 30
0.0
 11
488.4150855543891
 21
212.4281969102924
 31
0.0
  0
LINE
  5
1A7
330
1F
100
AcDbEntity
  8
0
  6
Continuous
 62
     7
100
AcDbLine
 10
488.9924358235791
 20
208.6281969102924
 30
0.0
 11
488.9924358235782
 21
210.5281969102921
 31
0.0
  0
LINE
  5
1A8
330
1F
100
AcDbEntity
  8
0
  6
Continuous
 62
     7
100
AcDbLine
 10
489.4924358235791
 20
208.9224933872103
 30
0.0
 11
489.4924358235791
 21
207.9464976674192
 31
0.0
  0
LINE
  5
1A9
330
1F
100
AcDbEntity
  8
0
  6
Continuous
 62
     7
100
AcDbLine
 10
484.8873088046572
 20
207.5179083419948
 30
0.0
 11
485.4128641546027
 21
208.4281969102921
 31
0.0
  0
LINE
  5
1AA
330
1F
100
AcDbEntity
  8
0
  6
Continuous
 62
     7
100
AcDbLine
 10
486.1634195045505
 20
207.1281969102924
 30
0.0
 11
486.68303474682
 21
208.0281969102923
 31
0.0
  0
LINE
  5
1AB
330
1F
100
AcDbEntity
  8
0
  6
Continuous
 62
     7
100
AcDbLine
 10
486.2788895583868
 20
212.4281969102919
 30
0.0
 11
485.1819240469273
 21
212.4281969102917
 31
0.0
  0
LINE
  5
1AC
330
1F
100
AcDbEntity
  8
0
  6
Continuous
 62
     7
100
AcDbLine
 10
484.6623088046559
 20
212.4281969102917
 30
0.0
 11
482.8776300529249
 21
212.4281969102915
 31
0.0
  0
LINE
  5
1AD
330
1F
100
AcDbEntity
  8
0
  6
Continuous
 62
     7
100
AcDbLine
 10
482.8776300529249
 20
210.2370426371037
 30
0.0
 11
482.8776300529249
 21
212.4281969102915
 31
0.0
  0
LINE
  5
1AE
330
1F
100
AcDbEntity
  8
0
  6
Continuous
 62
     7
100
AcDbLine
 10
485.1530565334675
 20
210.6781969102919
 30
0.0
 11
484.7752253171162
 21
211.3326197736978
 31
0.0
  0
LINE
  5
1AF
330
1F
100
AcDbEntity
  8
0
  6
Continuous
 62
     7
100
AcDbLine
 10
484.7752253171162
 20
211.3326197736978
 30
0.0
 11
482.8776300529249
 21
210.2370426371037
 31
0.0
  0
LINE
  5
1B0
330
1F
100
AcDbEntity
  8
0
  6
Continuous
 62
     7
100
AcDbLine
 10
487.8954703121177
 20
212.4281969102921
 30
0.0
 11
488.9924358235782
 21
210.5281969102921
 31
0.0
  0
LINE
  5
1B1
330
1F
100
AcDbEntity
  8
0
  6
Continuous
 62
     7
100
AcDbLine
 10
488.9924358235782
 20
211.4281969102924
 30
0.0
 11
488.9924358235782
 21
212.4281969102924
 31
0.0
  0
LINE
  5
1B2
330
1F
100
AcDbEntity
  8
0
  6
Continuous
 62
     7
100
AcDbLine
 10
481.9776300529253
 20
208.6781969102915
 30
0.0
 11
481.9776300529253
 21
210.3781969102915
 31
0.0
  0
LINE
  5
1B3
330
1F
100
AcDbEntity
  8
0
  6
Continuous
 62
     7
100
AcDbLine
 10
482.1219676202223
 20
212.4281969102915
 30
0.0
 11
481.602352377951
 21
212.4281969102915
 31
0.0
  0
LINE
  5
1B4
330
1F
100
AcDbEntity
  8
0
  6
Continuous
 62
     7
100
AcDbLine
 10
480.5631218934101
 20
212.4281969102915
 30
0.0
 11
480.0435066511387
 21
212.4281969102912
 31
0.0
  0
LINE
  5
1B5
330
1F
100
AcDbEntity
  8
0
  6
Continuous
 62
     7
100
AcDbLine
 10
488.9924358235791
 20
205.8281969102927
 30
0.0
 11
488.9924358235791
 21
207.7281969102926
 31
0.0
  0
LINE
  5
1B6
330
1F
100
AcDbEntity
  8
0
  6
Continuous
 62
     7
100
AcDbLine
 10
477.2433578455699
 20
209.3781969102911
 30
0.0
 11
477.7629730878413
 21
208.478196910291
 31
0.0
  0
LINE
  5
1B7
330
1F
100
AcDbEntity
  8
0
  6
Continuous
 62
     7
100
AcDbLine
 10
479.0042761665978
 20
212.428196910291
 30
0.0
 11
477.2433578455699
 21
209.3781969102911
 31
0.0
  0
LINE
  5
1B8
330
1F
100
AcDbEntity
  8
0
  6
Continuous
 62
     7
100
AcDbLine
 10
483.4498732393582
 20
209.5281969102918
 30
0.0
 11
480.7940620010874
 21
204.9281969102915
 31
0.0
  0
LINE
  5
1B9
330
1F
100
AcDbEntity
  8
0
  6
Continuous
 62
     7
100
AcDbLine
 10
477.6763705474629
 20
204.9281969102912
 30
0.0
 11
474.9628242822715
 21
209.6281969102906
 31
0.0
  0
LINE
  5
1BA
330
1F
100
AcDbEntity
  8
0
  6
Continuous
 62
     7
100
AcDbLine
 10
474.9628242822715
 20
206.8281969102909
 30
0.0
 11
474.9628242822715
 21
208.728196910291
 31
0.0
  0
LINE
  5
1BB
330
1F
100
AcDbEntity
  8
0
  6
Continuous
 62
     7
100
AcDbLine
 10
474.4628242822715
 20
208.9224933872085
 30
0.0
 11
474.4628242822715
 21
207.9464976674176
 31
0.0
  0
LINE
  5
1BC
330
1F
100
AcDbEntity
  8
0
  6
Continuous
 62
     7
100
AcDbLine
 10
510.9776300529253
 20
207.9464976674192
 30
0.0
 11
489.4924358235791
 21
207.9464976674192
 31
0.0
  0
LINE
  5
1BD
330
1F
100
AcDbEntity
  8
0
  6
Continuous
 62
     7
100
AcDbLine
 10
474.4628242822715
 20
207.9464976674176
 30
0.0
 11
452.9776300529253
 21
207.9464976674192
 31
0.0
  0
LINE
  5
1BE
330
1F
100
AcDbEntity
  8
0
  6
Continuous
 62
     7
100
AcDbLine
 10
479.5816264357878
 20
208.0281969102914
 30
0.0
 11
480.1012416780592
 21
207.1281969102915
 31
0.0
  0
LINE
  5
1BF
330
1F
100
AcDbEntity
  8
0
  6
Continuous
 62
     7
100
AcDbLine
 10
474.4628242822697
 20
211.7467949378147
 30
0.0
 11
452.9776300529235
 21
211.7467949378124
 31
0.0
  0
LINE
  5
1C0
330
1F
100
AcDbEntity
  8
0
  6
Continuous
 62
     7
100
AcDbLine
 10
452.9776300529253
 20
208.9224933872103
 30
0.0
 11
474.4628242822715
 21
208.9224933872085
 31
0.0
  0
LINE
  5
1C1
330
1F
100
AcDbEntity
  8
1
  6
Continuous
 62
     7
100
AcDbLine
 10
452.9776300529235
 20
214.1353720724366
 30
0.0
 11
510.9776300529235
 21
214.1353720724366
 31
0.0
  0
LINE
  5
1C2
330
1F
100
AcDbEntity
  8
0
  6
Continuous
 62
     7
100
AcDbLine
 10
452.9776300529235
 20
214.1353720724366
 30
0.0
 11
452.9776300529235
 21
215.6100733914802
 31
0.0
  0
LINE
  5
1C3
330
1F
100
AcDbEntity
  8
0
  6
Continuous
 62
     7
100
AcDbLine
 10
510.9776300529235
 20
214.1353720724366
 30
0.0
 11
510.9776300529262
 21
201.6781969102958
 31
0.0
  0
LINE
  5
1C4
330
1F
100
AcDbEntity
  8
1
  6
Continuous
 62
     7
100
AcDbLine
 10
452.9776300529262
 20
203.0233817466492
 30
0.0
 11
510.9776300529262
 21
203.0233817466492
 31
0.0
  0
LINE
  5
1C5
330
1F
100
AcDbEntity
  8
0
  6
Continuous
 62
     7
100
AcDbLine
 10
452.9776300529262
 20
201.6781969102894
 30
0.0
 11
452.9776300529235
 21
214.1353720724366
 31
0.0
  0
LINE
  5
1C6
330
1F
100
AcDbEntity
  8
Skizziergeometrie_TC_020513_DIN_
  6
Continuous
 62
     7
100
AcDbLine
 10
84.67180382512697
 20
245.0901044932991
 30
0.0
 11
119.671803825127
 21
245.090104493299
 31
0.0
  0
LINE
  5
1C7
330
1F
100
AcDbEntity
  8
Skizziergeometrie_TC_020513_DIN_
  6
Continuous
 62
     7
100
AcDbLine
 10
119.671803825127
 20
245.090104493299
 30
0.0
 11
119.671803825127
 21
180.090104493299
 31
0.0
  0
LINE
  5
1C8
330
1F
100
AcDbEntity
  8
Skizziergeometrie_TC_020513_DIN_
  6
Continuous
 62
     7
100
AcDbLine
 10
119.671803825127
 20
180.090104493299
 30
0.0
 11
84.67180382512686
 21
180.0901044932991
 31
0.0
  0
LINE
  5
1C9
330
1F
100
AcDbEntity
  8
Skizziergeometrie_TC_020513_DIN_
  6
Continuous
 62
     7
100
AcDbLine
 10
84.67180382512686
 20
180.0901044932991
 30
0.0
 11
84.67180382512697
 21
245.0901044932991
 31
0.0
  0
LINE
  5
1CA
330
1F
100
AcDbEntity
  8
Mittellinie_TC_020513_DIN_
  6
DOT_CENTER
 62
     2
100
AcDbLine
 10
79.67180382512697
 20
212.590104493299
 30
0.0
 11
124.671803825127
 21
212.590104493299
 31
0.0
  0
LINE
  5
1CB
330
1F
100
AcDbEntity
  8
Mittellinie_TC_020513_DIN_
  6
DOT_CENTER
 62
     2
100
AcDbLine
 10
102.171803825127
 20
175.090104493299
 30
0.0
 11
102.171803825127
 21
250.090104493299
 31
0.0
  0
LINE
  5
1CC
330
1F
100
AcDbEntity
  8
Mittelpunktmarkierung_TC_020513_DIN_
  6
DOT_CENTER
 62
     2
100
AcDbLine
 10
93.42180382512697
 20
254.090104493299
 30
0.0
 11
78.92180382512686
 21
254.090104493299
 31
0.0
  0
LINE
  5
1CD
330
1F
100
AcDbEntity
  8
Mittelpunktmarkierung_TC_020513_DIN_
  6
DOT_CENTER
 62
     2
100
AcDbLine
 10
86.17180382512674
 20
261.340104493299
 30
0.0
 11
86.17180382512674
 21
246.840104493299
 31
0.0
  0
LINE
  5
1CE
330
1F
100
AcDbEntity
  8
Mittelpunktmarkierung_TC_020513_DIN_
  6
DOT_CENTER
 62
     2
100
AcDbLine
 10
125.421803825127
 20
254.090104493299
 30
0.0
 11
110.921803825127
 21
254.090104493299
 31
0.0
  0
LINE
  5
1CF
330
1F
100
AcDbEntity
  8
Mittelpunktmarkierung_TC_020513_DIN_
  6
DOT_CENTER
 62
     2
100
AcDbLine
 10
118.171803825127
 20
261.340104493299
 30
0.0
 11
118.171803825127
 21
246.840104493299
 31
0.0
  0
LINE
  5
1D0
330
1F
100
AcDbEntity
  8
Mittelpunktmarkierung_TC_020513_DIN_
  6
DOT_CENTER
 62
     2
100
AcDbLine
 10
125.421803825127
 20
171.090104493299
 30
0.0
 11
110.921803825127
 21
171.090104493299
 31
0.0
  0
LINE
  5
1D1
330
1F
100
AcDbEntity
  8
Mittelpunktmarkierung_TC_020513_DIN_
  6
DOT_CENTER
 62
     2
100
AcDbLine
 10
118.171803825127
 20
178.340104493299
 30
0.0
 11
118.171803825127
 21
163.840104493299
 31
0.0
  0
LINE
  5
1D2
330
1F
100
AcDbEntity
  8
Mittelpunktmarkierung_TC_020513_DIN_
  6
DOT_CENTER
 62
     2
100
AcDbLine
 10
93.42180382512697
 20
171.090104493299
 30
0.0
 11
78.92180382512686
 21
171.090104493299
 31
0.0
  0
LINE
  5
1D3
330
1F
100
AcDbEntity
  8
Mittelpunktmarkierung_TC_020513_DIN_
  6
DOT_CENTER
 62
     2
100
AcDbLine
 10
86.17180382512674
 20
178.340104493299
 30
0.0
 11
86.17180382512674
 21
163.840104493299
 31
0.0
  0
LINE
  5
1D4
330
1F
100
AcDbEntity
  8
Sichtbare_Kanten_TC_020513_DIN_
  6
Continuous
 62
     7
100
AcDbLine
 10
307.7487162863899
 20
183.928196910299
 30
0.0
 11
306.6237162863899
 21
185.481776723985
 31
0.0
  0
LINE
  5
1D5
330
1F
100
AcDbEntity
  8
Sichtbare_Kanten_TC_020513_DIN_
  6
Continuous
 62
     7
100
AcDbLine
 10
306.6237162863899
 20
185.481776723985
 30
0.0
 11
306.6237162863899
 21
181.491417863936
 31
0.0
  0
LINE
  5
1D6
330
1F
100
AcDbEntity
  8
Sichtbare_Kanten_TC_020513_DIN_
  6
Continuous
 62
     7
100
AcDbLine
 10
305.8737162863899
 20
181.491417863936
 30
0.0
 11
305.8737162863899
 21
186.639014418201
 31
0.0
  0
LINE
  5
1D7
330
1F
100
AcDbEntity
  8
Sichtbare_Kanten_TC_020513_DIN_
  6
Continuous
 62
     7
100
AcDbLine
 10
306.5524451458799
 20
186.85895481902
 30
0.0
 11
307.7487162863899
 21
185.20695242294
 31
0.0
  0
LINE
  5
1D8
330
1F
100
AcDbEntity
  8
Sichtbare_Kanten_TC_020513_DIN_
  6
Continuous
 62
     7
100
AcDbLine
 10
307.7487162863899
 20
185.20695242294
 30
0.0
 11
308.9449874268989
 21
186.85895481902
 31
0.0
  0
LINE
  5
1D9
330
1F
100
AcDbEntity
  8
Sichtbare_Kanten_TC_020513_DIN_
  6
Continuous
 62
     7
100
AcDbLine
 10
309.6237162863899
 20
186.639014418201
 30
0.0
 11
309.6237162863899
 21
179.717379402398
 31
0.0
  0
LINE
  5
1DA
330
1F
100
AcDbEntity
  8
Sichtbare_Kanten_TC_020513_DIN_
  6
Continuous
 62
     7
100
AcDbLine
 10
308.8737162863899
 20
179.717379402398
 30
0.0
 11
308.8737162863899
 21
185.481776723985
 31
0.0
  0
LINE
  5
1DB
330
1F
100
AcDbEntity
  8
Sichtbare_Kanten_TC_020513_DIN_
  6
Continuous
 62
     7
100
AcDbLine
 10
308.8737162863899
 20
185.481776723985
 30
0.0
 11
307.7487162863899
 21
183.928196910299
 31
0.0
  0
LINE
  5
1DC
330
1F
100
AcDbEntity
  8
Sichtbare_Kanten_TC_020513_DIN_
  6
Continuous
 62
     7
100
AcDbLine
 10
305.0487162863898
 20
185.730360572047
 30
0.0
 11
305.0487162863898
 21
180.842619720277
 31
0.0
  0
LINE
  5
1DD
330
1F
100
AcDbEntity
  8
Sichtbare_Kanten_TC_020513_DIN_
  6
Continuous
 62
     7
100
AcDbLine
 10
305.0487162863898
 20
180.842619720277
 30
0.0
 11
307.9361122064478
 21
179.176814381781
 31
0.0
  0
LINE
  5
1DE
330
1F
100
AcDbEntity
  8
Sichtbare_Kanten_TC_020513_DIN_
  6
Continuous
 62
     7
100
AcDbLine
 10
307.5613203663309
 20
178.527175192245
 30
0.0
 11
304.4863203663309
 21
180.301213653783
 31
0.0
  0
LINE
  5
1DF
330
1F
100
AcDbEntity
  8
Sichtbare_Kanten_TC_020513_DIN_
  6
Continuous
 62
     7
100
AcDbLine
 10
304.2987162863898
 20
180.626033248551
 30
0.0
 11
304.2987162863898
 21
185.730360572047
 31
0.0
  0
LINE
  5
1E0
330
1F
100
AcDbEntity
  8
Sichtbare_Kanten_TC_020513_DIN_
  6
Continuous
 62
     7
100
AcDbLine
 10
297.9987162863899
 20
183.178196910299
 30
0.0
 11
307.7487162863899
 21
188.803196910299
 31
0.0
  0
LINE
  5
1E1
330
1F
100
AcDbEntity
  8
Sichtbare_Kanten_TC_020513_DIN_
  6
Continuous
 62
     7
100
AcDbLine
 10
307.7487162863899
 20
188.803196910299
 30
0.0
 11
317.4987162863899
 21
183.178196910299
 31
0.0
  0
LINE
  5
1E2
330
1F
100
AcDbEntity
  8
Sichtbare_Kanten_TC_020513_DIN_
  6
Continuous
 62
     7
100
AcDbLine
 10
317.4987162863899
 20
183.178196910299
 30
0.0
 11
307.7487162863899
 21
177.553196910299
 31
0.0
  0
LINE
  5
1E3
330
1F
100
AcDbEntity
  8
Sichtbare_Kanten_TC_020513_DIN_
  6
Continuous
 62
     7
100
AcDbLine
 10
307.7487162863899
 20
177.553196910299
 30
0.0
 11
297.9987162863899
 21
183.178196910299
 31
0.0
  0
LINE
  5
1E4
330
1F
100
AcDbEntity
  8
Sichtbare_Kanten_TC_020513_DIN_
  6
Continuous
 62
     7
100
AcDbLine
 10
307.7487162863899
 20
188.370264284728
 30
0.0
 11
298.7491328373798
 21
183.178196910299
 31
0.0
  0
LINE
  5
1E5
330
1F
100
AcDbEntity
  8
Sichtbare_Kanten_TC_020513_DIN_
  6
Continuous
 62
     7
100
AcDbLine
 10
316.7482997353988
 20
183.178196910299
 30
0.0
 11
307.7487162863899
 21
188.370264284728
 31
0.0
  0
LINE
  5
1E6
330
1F
100
AcDbEntity
  8
Sichtbare_Kanten_TC_020513_DIN_
  6
Continuous
 62
     7
100
AcDbLine
 10
307.7487162863899
 20
177.98612953587
 30
0.0
 11
316.7482997353988
 21
183.178196910299
 31
0.0
  0
LINE
  5
1E7
330
1F
100
AcDbEntity
  8
Sichtbare_Kanten_TC_020513_DIN_
  6
Continuous
 62
     7
100
AcDbLine
 10
298.7491328373798
 20
183.178196910299
 30
0.0
 11
307.7487162863899
 21
177.98612953587
 31
0.0
  0
LINE
  5
1E8
330
1F
100
AcDbEntity
  8
Sichtbare_Kanten_TC_020513_DIN_
  6
Continuous
 62
     7
100
AcDbLine
 10
303.5487162863898
 20
184.864975956662
 30
0.0
 11
303.5487162863898
 21
181.491417863936
 31
0.0
  0
LINE
  5
1E9
330
1F
100
AcDbEntity
  8
Sichtbare_Kanten_TC_020513_DIN_
  6
Continuous
 62
     7
100
AcDbLine
 10
302.7987162863898
 20
181.491417863936
 30
0.0
 11
302.7987162863898
 21
184.864975956662
 31
0.0
  0
LINE
  5
1EA
330
1F
100
AcDbEntity
  8
Sichtbare_Kanten_TC_020513_DIN_
  6
Continuous
 62
     7
100
AcDbLine
 10
310.9361122064478
 20
186.098449397584
 30
0.0
 11
313.1861122064478
 21
184.800372474507
 31
0.0
  0
LINE
  5
1EB
330
1F
100
AcDbEntity
  8
Sichtbare_Kanten_TC_020513_DIN_
  6
Continuous
 62
     7
100
AcDbLine
 10
312.8113203663309
 20
184.150733284971
 30
0.0
 11
311.1237162863899
 21
185.124351023399
 31
0.0
  0
LINE
  5
1EC
330
1F
100
AcDbEntity
  8
Sichtbare_Kanten_TC_020513_DIN_
  6
Continuous
 62
     7
100
AcDbLine
 10
311.1237162863899
 20
185.124351023399
 30
0.0
 11
311.1237162863899
 21
183.553196910299
 31
0.0
  0
LINE
  5
1ED
330
1F
100
AcDbEntity
  8
Sichtbare_Kanten_TC_020513_DIN_
  6
Continuous
 62
     7
100
AcDbLine
 10
311.1237162863899
 20
183.553196910299
 30
0.0
 11
312.9987162863899
 21
183.553196910299
 31
0.0
  0
LINE
  5
1EE
330
1F
100
AcDbEntity
  8
Sichtbare_Kanten_TC_020513_DIN_
  6
Continuous
 62
     7
100
AcDbLine
 10
312.9987162863899
 20
182.803196910299
 30
0.0
 11
311.1237162863899
 21
182.803196910299
 31
0.0
  0
LINE
  5
1EF
330
1F
100
AcDbEntity
  8
Sichtbare_Kanten_TC_020513_DIN_
  6
Continuous
 62
     7
100
AcDbLine
 10
311.1237162863899
 20
182.803196910299
 30
0.0
 11
311.1237162863899
 21
181.2320427972
 31
0.0
  0
LINE
  5
1F0
330
1F
100
AcDbEntity
  8
Sichtbare_Kanten_TC_020513_DIN_
  6
Continuous
 62
     7
100
AcDbLine
 10
311.1237162863899
 20
181.2320427972
 30
0.0
 11
312.8113203663309
 21
182.205660535627
 31
0.0
  0
LINE
  5
1F1
330
1F
100
AcDbEntity
  8
Sichtbare_Kanten_TC_020513_DIN_
  6
Continuous
 62
     7
100
AcDbLine
 10
313.1861122064478
 20
181.556021346091
 30
0.0
 11
310.9361122064478
 21
180.257944423014
 31
0.0
  0
LINE
  5
1F2
330
1F
100
AcDbEntity
  8
Sichtbare_Kanten_TC_020513_DIN_
  6
Continuous
 62
     7
100
AcDbLine
 10
310.3737162863899
 20
180.582764017782
 30
0.0
 11
310.3737162863899
 21
185.773629802816
 31
0.0
  0
ARC
  5
1F3
330
1F
100
AcDbEntity
  8
0
  6
Continuous
 62
     7
100
AcDbCircle
 10
293.5955775669298
 20
190.6781969102937
 30
0.0
 40
7.500000000000091
100
AcDbArc
 50
234.1156709126902
 51
32.23095263555415
  0
ARC
  5
1F4
330
1F
100
AcDbEntity
  8
1
  6
Continuous
 62
     7
100
AcDbCircle
 10
294.0005775669296
 20
190.6781969102965
 30
0.0
 40
2.400000000002183
100
AcDbArc
 50
107.1205027376908
 51
130.8951003694966
  0
ARC
  5
1F5
330
1F
100
AcDbEntity
  8
1
  6
Continuous
 62
     7
100
AcDbCircle
 10
294.0005775669296
 20
190.6781969102965
 30
0.0
 40
2.400000000001998
100
AcDbArc
 50
17.70641668173969
 51
62.61252460189539
  0
ARC
  5
1F6
330
1F
100
AcDbEntity
  8
1
  6
DASHED
 62
     2
100
AcDbCircle
 10
293.5105775669298
 20
190.6781969102965
 30
0.0
 40
40.51186128053946
100
AcDbArc
 50
147.5285151212895
 51
180.0
  0
ARC
  5
1F7
330
1F
100
AcDbEntity
  8
1
  6
DASHED
 62
     2
100
AcDbCircle
 10
293.5105775669298
 20
190.6781969102965
 30
0.0
 40
40.51186128054014
100
AcDbArc
 50
131.8165386634218
 51
147.5285151212895
  0
ARC
  5
1F8
330
1F
100
AcDbEntity
  8
1
  6
Continuous
 62
     7
100
AcDbCircle
 10
294.0005775669296
 20
190.6781969102965
 30
0.0
 40
2.400000000002557
100
AcDbArc
 50
130.8951003694966
 51
235.7711336722395
  0
ARC
  5
1F9
330
1F
100
AcDbEntity
  8
1
  6
Continuous
 62
     7
100
AcDbCircle
 10
294.0005775669296
 20
190.6781969102965
 30
0.0
 40
2.400000000002275
100
AcDbArc
 50
304.2288663277582
 51
0.0
  0
ARC
  5
1FA
330
1F
100
AcDbEntity
  8
0
  6
Continuous
 62
     7
100
AcDbCircle
 10
293.5955775669298
 20
190.6781969102937
 30
0.0
 40
5.099999999999454
100
AcDbArc
 50
0.00000000006737
 51
304.715948729119
  0
ARC
  5
1FB
330
1F
100
AcDbEntity
  8
0
  6
Continuous
 62
     7
100
AcDbCircle
 10
293.5955775669298
 20
190.6781969102937
 30
0.0
 40
5.099999999999547
100
AcDbArc
 50
304.715948729119
 51
338.2980418694143
  0
ARC
  5
1FC
330
1F
100
AcDbEntity
  8
0
  6
Continuous
 62
     7
100
AcDbCircle
 10
296.3861684898092
 20
186.6504677360397
 30
0.0
 40
0.1999999999997671
100
AcDbArc
 50
240.0000000001232
 51
304.7159487291657
  0
ARC
  5
1FD
330
1F
100
AcDbEntity
  8
0
  6
Continuous
 62
     7
100
AcDbCircle
 10
294.0005775669296
 20
190.6781969102937
 30
0.0
 40
4.00000000000044
100
AcDbArc
 50
258.5385858595665
 51
288.7693779919528
  0
ARC
  5
1FE
330
1F
100
AcDbEntity
  8
0
  6
Continuous
 62
     7
100
AcDbCircle
 10
297.1778690193495
 20
190.2348311065195
 30
0.0
 40
0.4999999999994649
100
AcDbArc
 50
185.6853347126348
 51
239.9999999999076
  0
ARC
  5
1FF
330
1F
100
AcDbEntity
  8
0
  6
Continuous
 62
     7
100
AcDbCircle
 10
298.1482652464237
 20
188.8662822067322
 30
0.0
 40
0.1999999999996871
100
AcDbArc
 50
338.2980418694698
 51
59.99999999991353
  0
ARC
  5
200
330
1F
100
AcDbEntity
  8
0
  6
Continuous
 62
     7
100
AcDbCircle
 10
298.8955775669264
 20
209.3781969102952
 30
0.0
 40
3.499999999999216
100
AcDbArc
 50
238.9517780065204
 51
0.0
  0
ARC
  5
201
330
1F
100
AcDbEntity
  8
0
  6
Continuous
 62
     7
100
AcDbCircle
 10
293.5955775669298
 20
190.6781969102937
 30
0.0
 40
5.099999999999465
100
AcDbArc
 50
338.2980418694143
 51
0.00000000006737
  0
ARC
  5
202
330
1F
100
AcDbEntity
  8
0
  6
Continuous
 62
     7
100
AcDbCircle
 10
298.3955775669264
 20
211.6781969102944
 30
0.0
 40
3.999999999999091
100
AcDbArc
 50
359.9999999999902
 51
90.00000000001303
  0
ARC
  5
203
330
1F
100
AcDbEntity
  8
0
  6
Continuous
 62
     7
100
AcDbCircle
 10
295.595577566928
 20
204.4781969102951
 30
0.0
 40
2.399999999998975
100
AcDbArc
 50
58.95177800656246
 51
160.0000000000019
  0
ARC
  5
204
330
1F
100
AcDbEntity
  8
0
  6
Continuous
 62
     7
100
AcDbCircle
 10
292.8804017233379
 20
199.6497365503301
 30
0.0
 40
1.500000000000034
100
AcDbArc
 50
160.0000000000039
 51
274.5577561143962
  0
ARC
  5
205
330
1F
100
AcDbEntity
  8
0
  6
Continuous
 62
     7
100
AcDbCircle
 10
293.5955775669298
 20
190.6781969102937
 30
0.0
 40
7.499999999999108
100
AcDbArc
 50
32.23095263555415
 51
94.55775611441383
  0
ARC
  5
206
330
1F
100
AcDbEntity
  8
0
  6
Continuous
 62
     7
100
AcDbCircle
 10
267.0955775669326
 20
205.1781969102947
 30
0.0
 40
1.0
100
AcDbArc
 50
270.0000000000521
 51
0.0000000000114
  0
ARC
  5
207
330
1F
100
AcDbEntity
  8
0
  6
Continuous
 62
     7
100
AcDbCircle
 10
267.0955775669326
 20
212.1781969102949
 30
0.0
 40
1.0
100
AcDbArc
 50
0.0
 51
90.0
  0
ARC
  5
208
330
1F
100
AcDbEntity
  8
0
  6
Continuous
 62
     7
100
AcDbCircle
 10
265.5955775669244
 20
208.6781969102947
 30
0.0
 40
4.5
100
AcDbArc
 50
90.00000000001157
 51
270.0000000000109
  0
ARC
  5
209
330
1F
100
AcDbEntity
  8
0
  6
Continuous
 62
     7
100
AcDbCircle
 10
265.5955775669262
 20
208.6781969102937
 30
0.0
 40
6.899999999997291
100
AcDbArc
 50
234.0000000000093
 51
242.0000000000099
  0
ARC
  5
20A
330
1F
100
AcDbEntity
  8
0
  6
Continuous
 62
     7
100
AcDbCircle
 10
265.5955775669262
 20
208.6781969102937
 30
0.0
 40
6.899999999997938
100
AcDbArc
 50
266.0000000000204
 51
270.0000000000227
  0
ARC
  5
20B
330
1F
100
AcDbEntity
  8
0
  6
Continuous
 62
     7
100
AcDbCircle
 10
265.5955775669262
 20
208.6781969102937
 30
0.0
 40
6.999999999997542
100
AcDbArc
 50
258.000000000018
 51
266.0000000000157
  0
ARC
  5
20C
330
1F
100
AcDbEntity
  8
0
  6
Continuous
 62
     7
100
AcDbCircle
 10
265.5955775669262
 20
208.6781969102937
 30
0.0
 40
6.899999999997311
100
AcDbArc
 50
250.0000000000188
 51
258.0000000000148
  0
ARC
  5
20D
330
1F
100
AcDbEntity
  8
0
  6
Continuous
 62
     7
100
AcDbCircle
 10
265.5955775669262
 20
208.6781969102937
 30
0.0
 40
6.999999999997746
100
AcDbArc
 50
242.0000000000054
 51
250.0000000000177
  0
ARC
  5
20E
330
1F
100
AcDbEntity
  8
0
  6
Continuous
 62
     7
100
AcDbCircle
 10
265.5955775669262
 20
208.6781969102937
 30
0.0
 40
6.900000000002194
100
AcDbArc
 50
89.99999999998491
 51
97.99999999999224
  0
ARC
  5
20F
330
1F
100
AcDbEntity
  8
0
  6
Continuous
 62
     7
100
AcDbCircle
 10
265.5955775669262
 20
208.6781969102937
 30
0.0
 40
7.000000000001992
100
AcDbArc
 50
97.99999999999285
 51
105.9999999999843
  0
ARC
  5
210
330
1F
100
AcDbEntity
  8
0
  6
Continuous
 62
     7
100
AcDbCircle
 10
265.5955775669262
 20
208.6781969102937
 30
0.0
 40
6.900000000001875
100
AcDbArc
 50
105.9999999999909
 51
113.9999999999838
  0
ARC
  5
211
330
1F
100
AcDbEntity
  8
0
  6
Continuous
 62
     7
100
AcDbCircle
 10
265.5955775669289
 20
208.6781969102937
 30
0.0
 40
7.000000000002453
100
AcDbArc
 50
114.0000000000074
 51
122.0000000000095
  0
ARC
  5
212
330
1F
100
AcDbEntity
  8
0
  6
Continuous
 62
     7
100
AcDbCircle
 10
265.5955775669289
 20
208.6781969102937
 30
0.0
 40
6.900000000002209
100
AcDbArc
 50
122.0000000000002
 51
129.9999999999985
  0
ARC
  5
213
330
1F
100
AcDbEntity
  8
0
  6
Continuous
 62
     7
100
AcDbCircle
 10
265.595577566928
 20
208.6781969102915
 30
0.0
 40
7.000000000000719
100
AcDbArc
 50
178.0000000000059
 51
180.4092590480874
  0
ARC
  5
214
330
1F
100
AcDbEntity
  8
0
  6
Continuous
 62
     7
100
AcDbCircle
 10
265.595577566928
 20
208.6781969102915
 30
0.0
 40
6.899999999999844
100
AcDbArc
 50
170.0000000000049
 51
178.000000000004
  0
ARC
  5
215
330
1F
100
AcDbEntity
  8
0
  6
Continuous
 62
     7
100
AcDbCircle
 10
265.5955775669344
 20
208.6781969102799
 30
0.0
 40
6.900000000000083
100
AcDbArc
 50
204.396165282637
 51
209.591845793971
  0
ARC
  5
216
330
1F
100
AcDbEntity
  8
0
  6
Continuous
 62
     7
100
AcDbCircle
 10
265.5955775669308
 20
208.6781969102878
 30
0.0
 40
7.300000000000623
100
AcDbArc
 50
202.9800728781466
 51
210.9105092221121
  0
ARC
  5
217
330
1F
100
AcDbEntity
  8
0
  6
Continuous
 62
     7
100
AcDbCircle
 10
265.5955775669298
 20
208.6781969102981
 30
0.0
 40
6.899999999999962
100
AcDbArc
 50
156.5123915070639
 51
162.000000000065
  0
ARC
  5
218
330
1F
100
AcDbEntity
  8
0
  6
Continuous
 62
     7
100
AcDbCircle
 10
265.5955775669262
 20
208.6781969102937
 30
0.0
 40
6.99999999999755
100
AcDbArc
 50
162.0000000000188
 51
170.000000000019
  0
ARC
  5
219
330
1F
100
AcDbEntity
  8
0
  6
Continuous
 62
     7
100
AcDbCircle
 10
265.5955775669262
 20
208.6781969102937
 30
0.0
 40
7.299999999998
100
AcDbArc
 50
157.8698151872157
 51
165.3197412543572
  0
ARC
  5
21A
330
1F
100
AcDbEntity
  8
0
  6
Continuous
 62
     7
100
AcDbCircle
 10
265.5955775669227
 20
208.6781969103065
 30
0.0
 40
6.900000000000702
100
AcDbArc
 50
202.0000000001366
 51
204.3961652828783
  0
ARC
  5
21B
330
1F
100
AcDbEntity
  8
0
  6
Continuous
 62
     7
100
AcDbCircle
 10
265.5955775669289
 20
208.6781969102896
 30
0.0
 40
6.900000000001205
100
AcDbArc
 50
187.9136870706794
 51
193.9999999999887
  0
ARC
  5
21C
330
1F
100
AcDbEntity
  8
0
  6
Continuous
 62
     7
100
AcDbCircle
 10
265.595577566928
 20
208.6781969102915
 30
0.0
 40
7.000000000000297
100
AcDbArc
 50
180.4092590480874
 51
186.0000000000047
  0
ARC
  5
21D
330
1F
100
AcDbEntity
  8
0
  6
Continuous
 62
     7
100
AcDbCircle
 10
265.5955775669262
 20
208.6781969102937
 30
0.0
 40
6.999999999999116
100
AcDbArc
 50
194.0000000000258
 51
202.0000000000293
  0
ARC
  5
21E
330
1F
100
AcDbEntity
  8
0
  6
Continuous
 62
     7
100
AcDbCircle
 10
265.595577566928
 20
208.6781969102981
 30
0.0
 40
6.90000000000143
100
AcDbArc
 50
186.000000000058
 51
187.9136870707504
  0
ARC
  5
21F
330
1F
100
AcDbEntity
  8
0
  6
Continuous
 62
     7
100
AcDbCircle
 10
265.5955775669262
 20
208.6781969102937
 30
0.0
 40
6.999999999996882
100
AcDbArc
 50
226.0000000000082
 51
234.0000000000028
  0
ARC
  5
220
330
1F
100
AcDbEntity
  8
0
  6
Continuous
 62
     7
100
AcDbCircle
 10
265.5955775669135
 20
208.6781969103081
 30
0.0
 40
6.899999999999351
100
AcDbArc
 50
218.0000000001828
 51
226.0000000001669
  0
ARC
  5
221
330
1F
100
AcDbEntity
  8
0
  6
Continuous
 62
     7
100
AcDbCircle
 10
265.5955775669262
 20
208.6781969102937
 30
0.0
 40
6.999999999998808
100
AcDbArc
 50
212.3923654858773
 51
218.0000000000305
  0
ARC
  5
222
330
1F
100
AcDbEntity
  8
0
  6
Continuous
 62
     7
100
AcDbCircle
 10
265.5955775669253
 20
208.6781969102965
 30
0.0
 40
7.00000000000061
100
AcDbArc
 50
210.0000000000508
 51
212.3923654859005
  0
ARC
  5
223
330
1F
100
AcDbEntity
  8
0
  6
Continuous
 62
     7
100
AcDbCircle
 10
265.5955775668898
 20
208.6781969103597
 30
0.0
 40
6.900000000001016
100
AcDbArc
 50
209.5918457947303
 51
210.0000000006519
  0
ARC
  5
224
330
1F
100
AcDbEntity
  8
0
  6
Continuous
 62
     7
100
AcDbCircle
 10
265.5955775669262
 20
208.6781969102937
 30
0.0
 40
7.299999999997505
100
AcDbArc
 50
149.08949077786
 51
157.8698151872157
  0
ARC
  5
225
330
1F
100
AcDbEntity
  8
0
  6
Continuous
 62
     7
100
AcDbCircle
 10
265.5955775669208
 20
208.6781969102781
 30
0.0
 40
6.899999999998895
100
AcDbArc
 50
153.9999999998768
 51
156.5123915068816
  0
ARC
  5
226
330
1F
100
AcDbEntity
  8
0
  6
Continuous
 62
     7
100
AcDbCircle
 10
265.5955775669262
 20
208.6781969102937
 30
0.0
 40
7.000000000000899
100
AcDbArc
 50
129.9999999999851
 51
137.9999999999817
  0
ARC
  5
227
330
1F
100
AcDbEntity
  8
0
  6
Continuous
 62
     7
100
AcDbCircle
 10
265.5955775669399
 20
208.6781969103078
 30
0.0
 40
6.900000000000906
100
AcDbArc
 50
138.0000000001466
 51
146.0000000001736
  0
ARC
  5
228
330
1F
100
AcDbEntity
  8
0
  6
Continuous
 62
     7
100
AcDbCircle
 10
265.595577566928
 20
208.6781969102915
 30
0.0
 40
7.000000000000599
100
AcDbArc
 50
147.6076345141543
 51
154.0000000000042
  0
ARC
  5
229
330
1F
100
AcDbEntity
  8
0
  6
Continuous
 62
     7
100
AcDbCircle
 10
265.5955775669262
 20
208.6781969102937
 30
0.0
 40
6.999999999998424
100
AcDbArc
 50
146.0000000000164
 51
147.6076345141617
  0
ARC
  5
22A
330
1F
100
AcDbEntity
  8
0
  6
Continuous
 62
     7
100
AcDbCircle
 10
265.5955775669262
 20
208.6781969102937
 30
0.0
 40
7.29999999999832
100
AcDbArc
 50
165.3197412543572
 51
180.3924399144611
  0
ARC
  5
22B
330
1F
100
AcDbEntity
  8
0
  6
Continuous
 62
     7
100
AcDbCircle
 10
265.5955775669262
 20
208.6781969102937
 30
0.0
 40
7.299999999998409
100
AcDbArc
 50
187.4775082995444
 51
202.9800728782035
  0
ARC
  5
22C
330
1F
100
AcDbEntity
  8
0
  6
Continuous
 62
     7
100
AcDbCircle
 10
265.5955775669262
 20
208.6781969102937
 30
0.0
 40
7.299999999998525
100
AcDbArc
 50
180.3924399144611
 51
187.4775082995444
  0
ARC
  5
22D
330
1F
100
AcDbEntity
  8
0
  6
Continuous
 62
     7
100
AcDbCircle
 10
298.3955775669228
 20
211.6781969102983
 30
0.0
 40
1.5
100
AcDbArc
 50
0.0000000000076
 51
90.0
  0
ARC
  5
22E
330
1F
100
AcDbEntity
  8
0
  6
Continuous
 62
     7
100
AcDbCircle
 10
298.8850996848149
 20
210.1962147924207
 30
0.0
 40
1.010477882108969
100
AcDbArc
 50
236.1819258985075
 51
0.0
  0
ARC
  5
22F
330
1F
100
AcDbEntity
  8
0
  6
Continuous
 62
     7
100
AcDbCircle
 10
295.5955775669235
 20
205.2857369102999
 30
0.0
 40
4.899999999999581
100
AcDbArc
 50
56.18192589852102
 51
136.1676606092074
  0
ARC
  5
230
330
1F
100
AcDbEntity
  8
0
  6
Continuous
 62
     7
100
AcDbCircle
 10
278.3031178056489
 20
205.4781966715816
 30
0.0
 40
7.707540238715639
100
AcDbArc
 50
87.46545028843704
 51
316.1676606092102
  0
ARC
  5
231
330
1F
100
AcDbEntity
  8
1
  6
Continuous
 62
     7
100
AcDbCircle
 10
293.5732408675522
 20
189.8603092874152
 30
0.0
 40
3.124037746754245
100
AcDbArc
 50
263.2443880200921
 51
264.5338562270093
  0
ARC
  5
232
330
1F
100
AcDbEntity
  8
1
  6
Continuous
 62
     7
100
AcDbCircle
 10
293.5732408675522
 20
189.8603092874152
 30
0.0
 40
3.124037746754235
100
AcDbArc
 50
5.97120329139618
 51
29.69981926449145
  0
ARC
  5
233
330
1F
100
AcDbEntity
  8
1
  6
Continuous
 62
     7
100
AcDbCircle
 10
321.9241917052278
 20
189.8603092874152
 30
0.0
 40
3.124037746755182
100
AcDbArc
 50
150.3001807355199
 51
174.0287967086043
  0
ARC
  5
234
330
1F
100
AcDbEntity
  8
1
  6
Continuous
 62
     7
100
AcDbCircle
 10
321.9241917052278
 20
189.8603092874152
 30
0.0
 40
3.124037746754225
100
AcDbArc
 50
276.7556119799047
 51
84.87289984507605
  0
ARC
  5
235
330
1F
100
AcDbEntity
  8
0
  6
Continuous
 62
     7
100
AcDbCircle
 10
337.1943147671301
 20
205.4781966715816
 30
0.0
 40
7.707540238715542
100
AcDbArc
 50
223.8323393907904
 51
92.53454971155662
  0
ARC
  5
236
330
1F
100
AcDbEntity
  8
0
  6
Continuous
 62
     7
100
AcDbCircle
 10
319.9018550058555
 20
205.2857369102999
 30
0.0
 40
4.899999999999462
100
AcDbArc
 50
43.83233939078572
 51
123.8180741014812
  0
ARC
  5
237
330
1F
100
AcDbEntity
  8
0
  6
Continuous
 62
     7
100
AcDbCircle
 10
316.612332887964
 20
210.1962147924207
 30
0.0
 40
1.010477882107807
100
AcDbArc
 50
180.0
 51
303.8180741014871
  0
ARC
  5
238
330
1F
100
AcDbEntity
  8
0
  6
Continuous
 62
     7
100
AcDbCircle
 10
317.1018550058562
 20
211.6781969102983
 30
0.0
 40
1.5
100
AcDbArc
 50
90.0
 51
179.9999999999924
  0
ARC
  5
239
330
1F
100
AcDbEntity
  8
0
  6
Continuous
 62
     7
100
AcDbCircle
 10
349.9018550058519
 20
208.6781969102937
 30
0.0
 40
7.300000000000213
100
AcDbArc
 50
352.5224917004575
 51
359.6075600855389
  0
ARC
  5
23A
330
1F
100
AcDbEntity
  8
0
  6
Continuous
 62
     7
100
AcDbCircle
 10
349.9018550058519
 20
208.6781969102937
 30
0.0
 40
7.299999999999635
100
AcDbArc
 50
337.0199271217996
 51
352.5224917004575
  0
ARC
  5
23B
330
1F
100
AcDbEntity
  8
0
  6
Continuous
 62
     7
100
AcDbCircle
 10
349.9018550058519
 20
208.6781969102937
 30
0.0
 40
7.299999999999434
100
AcDbArc
 50
359.6075600855389
 51
14.6802587456393
  0
ARC
  5
23C
330
1F
100
AcDbEntity
  8
0
  6
Continuous
 62
     7
100
AcDbCircle
 10
349.9018550058519
 20
208.6781969102937
 30
0.0
 40
6.999999999999411
100
AcDbArc
 50
32.39236548583035
 51
33.99999999998385
  0
ARC
  5
23D
330
1F
100
AcDbEntity
  8
0
  6
Continuous
 62
     7
100
AcDbCircle
 10
349.9018550058519
 20
208.6781969102915
 30
0.0
 40
7.000000000000332
100
AcDbArc
 50
25.99999999999577
 51
32.39236548584568
  0
ARC
  5
23E
330
1F
100
AcDbEntity
  8
0
  6
Continuous
 62
     7
100
AcDbCircle
 10
349.9018550058399
 20
208.6781969103078
 30
0.0
 40
6.900000000000118
100
AcDbArc
 50
33.99999999983037
 51
41.99999999985276
  0
ARC
  5
23F
330
1F
100
AcDbEntity
  8
0
  6
Continuous
 62
     7
100
AcDbCircle
 10
349.9018550058519
 20
208.6781969102937
 30
0.0
 40
7.000000000001208
100
AcDbArc
 50
42.00000000000866
 51
50.00000000000351
  0
ARC
  5
240
330
1F
100
AcDbEntity
  8
0
  6
Continuous
 62
     7
100
AcDbCircle
 10
349.9018550058582
 20
208.6781969102781
 30
0.0
 40
6.899999999998761
100
AcDbArc
 50
23.48760849312157
 51
26.00000000011971
  0
ARC
  5
241
330
1F
100
AcDbEntity
  8
0
  6
Continuous
 62
     7
100
AcDbCircle
 10
349.9018550058519
 20
208.6781969102937
 30
0.0
 40
7.299999999999685
100
AcDbArc
 50
22.13018481277891
 51
30.91050922213363
  0
ARC
  5
242
330
1F
100
AcDbEntity
  8
0
  6
Continuous
 62
     7
100
AcDbCircle
 10
349.9018550058891
 20
208.6781969103597
 30
0.0
 40
6.900000000002274
100
AcDbArc
 50
329.999999999352
 51
330.4081542052737
  0
ARC
  5
243
330
1F
100
AcDbEntity
  8
0
  6
Continuous
 62
     7
100
AcDbCircle
 10
349.9018550058537
 20
208.6781969102965
 30
0.0
 40
7.0000000000003
100
AcDbArc
 50
327.6076345141035
 51
329.9999999999491
  0
ARC
  5
244
330
1F
100
AcDbEntity
  8
0
  6
Continuous
 62
     7
100
AcDbCircle
 10
349.9018550058519
 20
208.6781969102937
 30
0.0
 40
7.000000000001072
100
AcDbArc
 50
321.9999999999786
 51
327.6076345141304
  0
ARC
  5
245
330
1F
100
AcDbEntity
  8
0
  6
Continuous
 62
     7
100
AcDbCircle
 10
349.9018550058655
 20
208.6781969103081
 30
0.0
 40
6.899999999999057
100
AcDbArc
 50
313.9999999998388
 51
321.9999999998126
  0
ARC
  5
246
330
1F
100
AcDbEntity
  8
0
  6
Continuous
 62
     7
100
AcDbCircle
 10
349.9018550058519
 20
208.6781969102937
 30
0.0
 40
6.999999999998232
100
AcDbArc
 50
306.0000000000028
 51
314.0000000000022
  0
ARC
  5
247
330
1F
100
AcDbEntity
  8
0
  6
Continuous
 62
     7
100
AcDbCircle
 10
349.9018550058519
 20
208.6781969102981
 30
0.0
 40
6.89999999999956
100
AcDbArc
 50
352.0863129292474
 51
353.9999999999404
  0
ARC
  5
248
330
1F
100
AcDbEntity
  8
0
  6
Continuous
 62
     7
100
AcDbCircle
 10
349.9018550058519
 20
208.6781969102937
 30
0.0
 40
6.999999999999745
100
AcDbArc
 50
337.9999999999733
 51
345.999999999976
  0
ARC
  5
249
330
1F
100
AcDbEntity
  8
0
  6
Continuous
 62
     7
100
AcDbCircle
 10
349.9018550058519
 20
208.6781969102915
 30
0.0
 40
6.999999999999203
100
AcDbArc
 50
353.9999999999943
 51
359.5907409519125
  0
ARC
  5
24A
330
1F
100
AcDbEntity
  8
0
  6
Continuous
 62
     7
100
AcDbCircle
 10
349.9018550058499
 20
208.6781969102896
 30
0.0
 40
6.900000000000977
100
AcDbArc
 50
346.0000000000131
 51
352.0863129293197
  0
ARC
  5
24B
330
1F
100
AcDbEntity
  8
0
  6
Continuous
 62
     7
100
AcDbCircle
 10
349.9018550058573
 20
208.6781969103065
 30
0.0
 40
6.900000000000407
100
AcDbArc
 50
335.6038347171217
 51
337.9999999998629
  0
ARC
  5
24C
330
1F
100
AcDbEntity
  8
0
  6
Continuous
 62
     7
100
AcDbCircle
 10
349.9018550058519
 20
208.6781969102937
 30
0.0
 40
7.300000000000025
100
AcDbArc
 50
14.6802587456393
 51
22.13018481277891
  0
ARC
  5
24D
330
1F
100
AcDbEntity
  8
0
  6
Continuous
 62
     7
100
AcDbCircle
 10
349.9018550058519
 20
208.6781969102937
 30
0.0
 40
6.999999999999345
100
AcDbArc
 50
9.99999999997846
 51
17.99999999997859
  0
ARC
  5
24E
330
1F
100
AcDbEntity
  8
0
  6
Continuous
 62
     7
100
AcDbCircle
 10
349.9018550058499
 20
208.6781969102981
 30
0.0
 40
6.899999999999072
100
AcDbArc
 50
17.9999999999391
 51
23.48760849294172
  0
ARC
  5
24F
330
1F
100
AcDbEntity
  8
0
  6
Continuous
 62
     7
100
AcDbCircle
 10
349.9018550058491
 20
208.6781969102878
 30
0.0
 40
7.300000000000594
100
AcDbArc
 50
329.0894907778872
 51
337.0199271218511
  0
ARC
  5
250
330
1F
100
AcDbEntity
  8
0
  6
Continuous
 62
     7
100
AcDbCircle
 10
349.9018550058455
 20
208.6781969102799
 30
0.0
 40
6.900000000000357
100
AcDbArc
 50
330.4081542060287
 51
335.6038347173634
  0
ARC
  5
251
330
1F
100
AcDbEntity
  8
0
  6
Continuous
 62
     7
100
AcDbCircle
 10
349.9018550058519
 20
208.6781969102915
 30
0.0
 40
6.899999999999777
100
AcDbArc
 50
1.9999999999963
 51
9.9999999999955
  0
ARC
  5
252
330
1F
100
AcDbEntity
  8
0
  6
Continuous
 62
     7
100
AcDbCircle
 10
349.9018550058519
 20
208.6781969102915
 30
0.0
 40
6.999999999999501
100
AcDbArc
 50
359.5907409519125
 51
1.99999999999441
  0
ARC
  5
253
330
1F
100
AcDbEntity
  8
0
  6
Continuous
 62
     7
100
AcDbCircle
 10
349.9018550058499
 20
208.6781969102937
 30
0.0
 40
6.9000000000026
100
AcDbArc
 50
49.99999999999427
 51
57.99999999999179
  0
ARC
  5
254
330
1F
100
AcDbEntity
  8
0
  6
Continuous
 62
     7
100
AcDbCircle
 10
349.9018550058499
 20
208.6781969102937
 30
0.0
 40
7.000000000002218
100
AcDbArc
 50
57.99999999999603
 51
65.99999999998454
  0
ARC
  5
255
330
1F
100
AcDbEntity
  8
0
  6
Continuous
 62
     7
100
AcDbCircle
 10
349.9018550058519
 20
208.6781969102937
 30
0.0
 40
6.900000000001703
100
AcDbArc
 50
66.00000000000415
 51
74.00000000000183
  0
ARC
  5
256
330
1F
100
AcDbEntity
  8
0
  6
Continuous
 62
     7
100
AcDbCircle
 10
349.9018550058519
 20
208.6781969102937
 30
0.0
 40
7.000000000002078
100
AcDbArc
 50
74.00000000000188
 51
82.00000000000162
  0
ARC
  5
257
330
1F
100
AcDbEntity
  8
0
  6
Continuous
 62
     7
100
AcDbCircle
 10
349.9018550058519
 20
208.6781969102937
 30
0.0
 40
6.900000000002052
100
AcDbArc
 50
82.00000000000075
 51
90.0
  0
ARC
  5
258
330
1F
100
AcDbEntity
  8
0
  6
Continuous
 62
     7
100
AcDbCircle
 10
349.9018550058519
 20
208.6781969102937
 30
0.0
 40
6.999999999997756
100
AcDbArc
 50
289.9999999999963
 51
298.0000000000008
  0
ARC
  5
259
330
1F
100
AcDbEntity
  8
0
  6
Continuous
 62
     7
100
AcDbCircle
 10
349.9018550058519
 20
208.6781969102937
 30
0.0
 40
6.899999999997799
100
AcDbArc
 50
281.9999999999921
 51
289.9999999999954
  0
ARC
  5
25A
330
1F
100
AcDbEntity
  8
0
  6
Continuous
 62
     7
100
AcDbCircle
 10
349.9018550058519
 20
208.6781969102937
 30
0.0
 40
6.999999999997852
100
AcDbArc
 50
273.9999999999912
 51
281.9999999999965
  0
ARC
  5
25B
330
1F
100
AcDbEntity
  8
0
  6
Continuous
 62
     7
100
AcDbCircle
 10
349.9018550058519
 20
208.6781969102937
 30
0.0
 40
6.899999999998016
100
AcDbArc
 50
269.999999999983
 51
273.9999999999947
  0
ARC
  5
25C
330
1F
100
AcDbEntity
  8
0
  6
Continuous
 62
     7
100
AcDbCircle
 10
349.9018550058519
 20
208.6781969102937
 30
0.0
 40
6.89999999999785
100
AcDbArc
 50
297.9999999999964
 51
305.9999999999968
  0
ARC
  5
25D
330
1F
100
AcDbEntity
  8
0
  6
Continuous
 62
     7
100
AcDbCircle
 10
349.9018550058546
 20
208.6781969102947
 30
0.0
 40
4.5
100
AcDbArc
 50
270.0
 51
89.99999999998842
  0
ARC
  5
25E
330
1F
100
AcDbEntity
  8
0
  6
Continuous
 62
     7
100
AcDbCircle
 10
348.4018550058473
 20
212.1781969102949
 30
0.0
 40
1.0
100
AcDbArc
 50
90.0
 51
180.0
  0
ARC
  5
25F
330
1F
100
AcDbEntity
  8
0
  6
Continuous
 62
     7
100
AcDbCircle
 10
348.4018550058464
 20
205.1781969102947
 30
0.0
 40
1.0
100
AcDbArc
 50
179.9999999999886
 51
269.9999999999479
  0
ARC
  5
260
330
1F
100
AcDbEntity
  8
0
  6
Continuous
 62
     7
100
AcDbCircle
 10
321.9018550058499
 20
190.6781969102937
 30
0.0
 40
7.500000000000095
100
AcDbArc
 50
85.44224388559135
 51
147.7690473644528
  0
ARC
  5
261
330
1F
100
AcDbEntity
  8
0
  6
Continuous
 62
     7
100
AcDbCircle
 10
322.6170308494412
 20
199.6497365503301
 30
0.0
 40
1.499999999999945
100
AcDbArc
 50
265.4422438855995
 51
19.99999999998645
  0
ARC
  5
262
330
1F
100
AcDbEntity
  8
0
  6
Continuous
 62
     7
100
AcDbCircle
 10
319.9018550058519
 20
204.4781969102951
 30
0.0
 40
2.399999999999445
100
AcDbArc
 50
20.00000000000457
 51
121.0482219934375
  0
ARC
  5
263
330
1F
100
AcDbEntity
  8
0
  6
Continuous
 62
     7
100
AcDbCircle
 10
317.1018550058526
 20
211.6781969102944
 30
0.0
 40
3.999999999999318
100
AcDbArc
 50
89.99999999998697
 51
180.0000000000097
  0
ARC
  5
264
330
1F
100
AcDbEntity
  8
0
  6
Continuous
 62
     7
100
AcDbCircle
 10
321.9018550058499
 20
190.6781969102937
 30
0.0
 40
5.099999999999284
100
AcDbArc
 50
179.9999999999326
 51
201.7019581305858
  0
ARC
  5
265
330
1F
100
AcDbEntity
  8
0
  6
Continuous
 62
     7
100
AcDbCircle
 10
316.6018550058526
 20
209.3781969102952
 30
0.0
 40
3.499999999999091
100
AcDbArc
 50
180.0
 51
301.0482219934924
  0
ARC
  5
266
330
1F
100
AcDbEntity
  8
0
  6
Continuous
 62
     7
100
AcDbCircle
 10
317.3491673263553
 20
188.8662822067322
 30
0.0
 40
0.1999999999996932
100
AcDbArc
 50
119.999999999889
 51
201.7019581306024
  0
ARC
  5
267
330
1F
100
AcDbEntity
  8
0
  6
Continuous
 62
     7
100
AcDbCircle
 10
318.3195635534304
 20
190.2348311065195
 30
0.0
 40
0.4999999999999672
100
AcDbArc
 50
300.0000000000022
 51
354.3146652873646
  0
ARC
  5
268
330
1F
100
AcDbEntity
  8
0
  6
Continuous
 62
     7
100
AcDbCircle
 10
321.4968550058503
 20
190.6781969102937
 30
0.0
 40
4.000000000000429
100
AcDbArc
 50
281.4614141404327
 51
288.7693779919651
  0
ARC
  5
269
330
1F
100
AcDbEntity
  8
0
  6
Continuous
 62
     7
100
AcDbCircle
 10
319.1112640829689
 20
186.6504677360397
 30
0.0
 40
0.1999999999991782
100
AcDbArc
 50
235.2840512712493
 51
300.000000000046
  0
ARC
  5
26A
330
1F
100
AcDbEntity
  8
0
  6
Continuous
 62
     7
100
AcDbCircle
 10
321.9018550058499
 20
190.6781969102937
 30
0.0
 40
5.099999999999465
100
AcDbArc
 50
201.7019581305858
 51
235.2840512708825
  0
ARC
  5
26B
330
1F
100
AcDbEntity
  8
0
  6
Continuous
 62
     7
100
AcDbCircle
 10
321.9018550058499
 20
190.6781969102937
 30
0.0
 40
5.099999999999449
100
AcDbArc
 50
235.2840512708825
 51
179.9999999999326
  0
ARC
  5
26C
330
1F
100
AcDbEntity
  8
1
  6
Continuous
 62
     7
100
AcDbCircle
 10
321.4968550058503
 20
190.6781969102965
 30
0.0
 40
2.400000000003331
100
AcDbArc
 50
180.0
 51
235.7711336722373
  0
ARC
  5
26D
330
1F
100
AcDbEntity
  8
1
  6
Continuous
 62
     7
100
AcDbCircle
 10
321.4968550058503
 20
190.6781969102965
 30
0.0
 40
2.400000000002851
100
AcDbArc
 50
304.2288663277784
 51
49.10489963051783
  0
ARC
  5
26E
330
1F
100
AcDbEntity
  8
1
  6
DASHED
 62
     2
100
AcDbCircle
 10
321.9868550058501
 20
190.6781969102965
 30
0.0
 40
40.51186128053931
100
AcDbArc
 50
32.4714848787106
 51
48.18346133657825
  0
ARC
  5
26F
330
1F
100
AcDbEntity
  8
1
  6
DASHED
 62
     2
100
AcDbCircle
 10
321.9868550058501
 20
190.6781969102965
 30
0.0
 40
40.51186128053979
100
AcDbArc
 50
0.0
 51
32.4714848787106
  0
ARC
  5
270
330
1F
100
AcDbEntity
  8
1
  6
Continuous
 62
     7
100
AcDbCircle
 10
321.4968550058503
 20
190.6781969102965
 30
0.0
 40
2.400000000003081
100
AcDbArc
 50
162.2935833182686
 51
180.0
  0
ARC
  5
271
330
1F
100
AcDbEntity
  8
1
  6
Continuous
 62
     7
100
AcDbCircle
 10
321.4968550058503
 20
190.6781969102965
 30
0.0
 40
2.400000000002116
100
AcDbArc
 50
72.87949726231439
 51
117.3874753981287
  0
ARC
  5
272
330
1F
100
AcDbEntity
  8
0
  6
Continuous
 62
     7
100
AcDbCircle
 10
321.9018550058499
 20
190.6781969102937
 30
0.0
 40
7.500000000000552
100
AcDbArc
 50
147.7690473644528
 51
305.8843290873113
  0
ARC
  5
273
330
1F
100
AcDbEntity
  8
0
  6
Continuous
 62
     7
100
AcDbCircle
 10
321.4968550058503
 20
190.6781969102937
 30
0.0
 40
4.000000000000242
100
AcDbArc
 50
251.2306220080341
 51
281.4614141404327
  0
ARC
  5
274
330
1F
100
AcDbEntity
  8
1
  6
Continuous
 62
     7
100
AcDbCircle
 10
321.9241917052278
 20
189.8603092874152
 30
0.0
 40
3.124037746754193
100
AcDbArc
 50
275.4661437729886
 51
276.7556119799047
  0
ARC
  5
275
330
1F
100
AcDbEntity
  8
1
  6
Continuous
 62
     7
100
AcDbCircle
 10
321.4968550058503
 20
190.6781969102965
 30
0.0
 40
2.400000000002858
100
AcDbArc
 50
117.3874753981287
 51
162.2935833182686
  0
ARC
  5
276
330
1F
100
AcDbEntity
  8
1
  6
Continuous
 62
     7
100
AcDbCircle
 10
321.4968550058503
 20
190.6781969102965
 30
0.0
 40
2.400000000002036
100
AcDbArc
 50
49.10489963051783
 51
72.87949726231439
  0
ARC
  5
277
330
1F
100
AcDbEntity
  8
1
  6
Continuous
 62
     7
100
AcDbCircle
 10
294.0005775669296
 20
190.6781969102965
 30
0.0
 40
2.400000000002335
100
AcDbArc
 50
62.61252460189539
 51
107.1205027376908
  0
ARC
  5
278
330
1F
100
AcDbEntity
  8
1
  6
Continuous
 62
     7
100
AcDbCircle
 10
293.5732408675522
 20
189.8603092874152
 30
0.0
 40
3.124037746753942
100
AcDbArc
 50
95.12710015493019
 51
263.2443880200921
  0
ARC
  5
279
330
1F
100
AcDbEntity
  8
0
  6
Continuous
 62
     7
100
AcDbCircle
 10
294.0005775669296
 20
190.6781969102937
 30
0.0
 40
4.000000000000206
100
AcDbArc
 50
251.2306220080357
 51
258.5385858595665
  0
ARC
  5
27A
330
1F
100
AcDbEntity
  8
1
  6
Continuous
 62
     7
100
AcDbCircle
 10
294.0005775669296
 20
190.6781969102965
 30
0.0
 40
2.400000000002365
100
AcDbArc
 50
0.0
 51
17.70641668173969
  0
ARC
  5
27B
330
1F
100
AcDbEntity
  8
Sichtbare_Kanten_TC_020513_DIN_
  6
Continuous
 62
     7
100
AcDbCircle
 10
306.2487162863899
 20
181.491417863936
 30
0.0
 40
0.375
100
AcDbArc
 50
180.0
 51
0.0
  0
ARC
  5
27C
330
1F
100
AcDbEntity
  8
Sichtbare_Kanten_TC_020513_DIN_
  6
Continuous
 62
     7
100
AcDbCircle
 10
306.2487162863899
 20
186.639014418201
 30
0.0
 40
0.3749999999993948
100
AcDbArc
 50
35.90957617704336
 51
180.0
  0
ARC
  5
27D
330
1F
100
AcDbEntity
  8
Sichtbare_Kanten_TC_020513_DIN_
  6
Continuous
 62
     7
100
AcDbCircle
 10
309.2487162863899
 20
186.639014418201
 30
0.0
 40
0.375
100
AcDbArc
 50
0.0
 51
144.0904238230432
  0
ARC
  5
27E
330
1F
100
AcDbEntity
  8
Sichtbare_Kanten_TC_020513_DIN_
  6
Continuous
 62
     7
100
AcDbCircle
 10
309.2487162863899
 20
179.717379402398
 30
0.0
 40
0.375
100
AcDbArc
 50
180.0
 51
0.0
  0
ARC
  5
27F
330
1F
100
AcDbEntity
  8
Sichtbare_Kanten_TC_020513_DIN_
  6
Continuous
 62
     7
100
AcDbCircle
 10
304.6737162863898
 20
185.730360572047
 30
0.0
 40
0.375
100
AcDbArc
 50
0.0
 51
180.0
  0
ARC
  5
280
330
1F
100
AcDbEntity
  8
Sichtbare_Kanten_TC_020513_DIN_
  6
Continuous
 62
     7
100
AcDbCircle
 10
307.7487162863899
 20
178.851994787013
 30
0.0
 40
0.3749999999999982
100
AcDbArc
 50
240.0183606310828
 51
60.01836063122575
  0
ARC
  5
281
330
1F
100
AcDbEntity
  8
Sichtbare_Kanten_TC_020513_DIN_
  6
Continuous
 62
     7
100
AcDbCircle
 10
304.6737162863898
 20
180.626033248551
 30
0.0
 40
0.375
100
AcDbArc
 50
180.0
 51
240.0183606310978
  0
ARC
  5
282
330
1F
100
AcDbEntity
  8
Sichtbare_Kanten_TC_020513_DIN_
  6
Continuous
 62
     7
100
AcDbCircle
 10
303.1737162863898
 20
181.491417863936
 30
0.0
 40
0.375
100
AcDbArc
 50
180.0
 51
0.0
  0
ARC
  5
283
330
1F
100
AcDbEntity
  8
Sichtbare_Kanten_TC_020513_DIN_
  6
Continuous
 62
     7
100
AcDbCircle
 10
303.1737162863898
 20
184.864975956662
 30
0.0
 40
0.375
100
AcDbArc
 50
0.0
 51
180.0
  0
ARC
  5
284
330
1F
100
AcDbEntity
  8
Sichtbare_Kanten_TC_020513_DIN_
  6
Continuous
 62
     7
100
AcDbCircle
 10
310.7487162863899
 20
185.773629802816
 30
0.0
 40
0.3749999999994585
100
AcDbArc
 50
60.01836063122575
 51
180.0
  0
ARC
  5
285
330
1F
100
AcDbEntity
  8
Sichtbare_Kanten_TC_020513_DIN_
  6
Continuous
 62
     7
100
AcDbCircle
 10
312.9987162863899
 20
184.475552879739
 30
0.0
 40
0.3749999999999982
100
AcDbArc
 50
240.0183606310828
 51
60.01836063122358
  0
ARC
  5
286
330
1F
100
AcDbEntity
  8
Sichtbare_Kanten_TC_020513_DIN_
  6
Continuous
 62
     7
100
AcDbCircle
 10
312.9987162863899
 20
183.178196910299
 30
0.0
 40
0.375
100
AcDbArc
 50
270.0
 51
90.0
  0
ARC
  5
287
330
1F
100
AcDbEntity
  8
Sichtbare_Kanten_TC_020513_DIN_
  6
Continuous
 62
     7
100
AcDbCircle
 10
312.9987162863899
 20
181.880840940859
 30
0.0
 40
0.3749999999994585
100
AcDbArc
 50
299.9816393687742
 51
119.9816393689172
  0
ARC
  5
288
330
1F
100
AcDbEntity
  8
Sichtbare_Kanten_TC_020513_DIN_
  6
Continuous
 62
     7
100
AcDbCircle
 10
310.7487162863899
 20
180.582764017782
 30
0.0
 40
0.375
100
AcDbArc
 50
180.0
 51
299.9816393687742
  0
CIRCLE
  5
289
330
1F
100
AcDbEntity
  8
0
  6
Continuous
 62
     7
100
AcDbCircle
 10
285.0955775669253
 20
194.6781969102972
 30
0.0
 40
3.0
  0
CIRCLE
  5
28A
330
1F
100
AcDbEntity
  8
0
  6
Continuous
 62
     7
100
AcDbCircle
 10
330.4018550058537
 20
194.6781969102972
 30
0.0
 40
3.0
  0
CIRCLE
  5
28B
330
1F
100
AcDbEntity
  8
Skizziergeometrie_TC_020513_DIN_
  6
Continuous
 62
     7
100
AcDbCircle
 10
86.17180382512674
 20
254.090104493299
 30
0.0
 40
2.25
  0
CIRCLE
  5
28C
330
1F
100
AcDbEntity
  8
Skizziergeometrie_TC_020513_DIN_
  6
Continuous
 62
     7
100
AcDbCircle
 10
86.17180382512674
 20
171.090104493299
 30
0.0
 40
2.25
  0
CIRCLE
  5
28D
330
1F
100
AcDbEntity
  8
Skizziergeometrie_TC_020513_DIN_
  6
Continuous
 62
     7
100
AcDbCircle
 10
118.171803825127
 20
171.090104493299
 30
0.0
 40
2.25
  0
CIRCLE
  5
28E
330
1F
100
AcDbEntity
  8
Skizziergeometrie_TC_020513_DIN_
  6
Continuous
 62
     7
100
AcDbCircle
 10
118.171803825127
 20
254.090104493299
 30
0.0
 40
2.25
  0
ARC
  5
28F
330
1F
100
AcDbEntity
  8
1
  6
Continuous
 62
     7
100
AcDbCircle
 10
502.4776300529262
 20
195.7843467860487
 30
0.0
 40
3.0
100
AcDbArc
 50
0.0000000000038
 51
70.50717783613389
  0
ARC
  5
290
330
1F
100
AcDbEntity
  8
1
  6
Continuous
 62
     7
100
AcDbCircle
 10
461.4776300529262
 20
195.7843467860439
 30
0.0
 40
3.0
100
AcDbArc
 50
90.0
 51
109.4496219841278
  0
ARC
  5
291
330
1F
100
AcDbEntity
  8
1
  6
Continuous
 62
     7
100
AcDbCircle
 10
461.4776300529262
 20
195.7843467860439
 30
0.0
 40
3.000000000000084
100
AcDbArc
 50
109.4496219841278
 51
180.0000000000054
  0
ARC
  5
292
330
1F
100
AcDbEntity
  8
1
  6
Continuous
 62
     7
100
AcDbCircle
 10
502.4776300529262
 20
195.7843467860487
 30
0.0
 40
2.999999999999877
100
AcDbArc
 50
70.50717783613389
 51
90.0
  0
MTEXT
  5
293
330
1F
100
AcDbEntity
  8
Symbole_TC_020513_DIN_
 62
     7
100
AcDbMText
 10
68.1412183513172
 20
299.6824241458101
 30
0.0
 40
7.0
 41
0.0
 71
     4
 72
     1
  1
Panel\Pcut\Pout
  7
CONVERTER_11
 73
     1
 44
0.90036014405762
  0
DIMENSION
  5
2A1
330
1F
100
AcDbEntity
  8
1
100
AcDbDimension
  2
*D3
 10
530.9776300529269
 20
177.178196910299
 30
0.0
 11
523.9776300529269
 21
187.4069106140441
 31
0.0
 70
    32
  1
<>
 71
     5
 42
-1.0
 53
90.0
  3
ME10_DIM_10
100
AcDbAlignedDimension
 13
504.7276300529289
 23
171.178196910299
 33
0.0
 14
503.783093689172
 24
177.178196910299
 34
0.0
 50
90.0
100
AcDbRotatedDimension
  0
DIMENSION
  5
2AC
330
1F
100
AcDbEntity
  8
1
100
AcDbDimension
  2
*D4
 10
240.2505775669296
 20
171.178196910299
 30
0.0
 11
233.2505775669296
 21
185.678196910299
 31
0.0
 70
    32
  1
<>
 71
     5
 42
-1.0
 53
90.0
  3
ME10_DIM_11
100
AcDbAlignedDimension
 13
267.6689399535034
 23
200.178196910299
 33
0.0
 14
259.9987162863899
 24
171.178196910299
 34
0.0
 50
90.0
100
AcDbRotatedDimension
  0
DIMENSION
  5
2B7
330
1F
100
AcDbEntity
  8
1
100
AcDbDimension
  2
*D5
 10
252.9987162863899
 20
235.6781969102944
 30
0.0
 11
307.7487162863899
 21
242.9781969102944
 31
0.0
 70
    33
  1
<>
 71
     5
 42
-1.0
 53
0.00013888888889
  3
ME10_DIM_12
100
AcDbAlignedDimension
 13
362.4987162863899
 23
190.6781969102965
 33
0.0
 14
252.9987162863899
 24
190.6781969102965
 34
0.0
  0
DIMENSION
  5
2C2
330
1F
100
AcDbEntity
  8
1
100
AcDbDimension
  2
*D6
 10
459.2276300529289
 20
131.178196910299
 30
0.0
 11
481.9776300529289
 21
138.478196910299
 31
0.0
 70
    33
  1
<>
 71
     5
 42
-1.0
 53
0.00013888888889
  3
ME10_DIM_13
100
AcDbAlignedDimension
 13
504.7276300529289
 23
171.178196910299
 33
0.0
 14
459.2276300529289
 24
171.178196910299
 34
0.0
  0
DIMENSION
  5
2CD
330
1F
100
AcDbEntity
  8
1
100
AcDbDimension
  2
*D7
 10
266.24871628639
 20
151.178196910299
 30
0.0
 11
307.7487162863901
 21
158.178196910299
 31
0.0
 70
    33
  1
<>
 71
     5
 42
-1.0
 53
0.00013888888889
  3
ME10_DIM_14
100
AcDbAlignedDimension
 13
349.2487162863899
 23
168.6541151959666
 33
0.0
 14
266.2487162863899
 24
168.6541151959664
 34
0.0
  0
DIMENSION
  5
2D8
330
1F
100
AcDbEntity
  8
1
100
AcDbDimension
  2
*D8
 10
465.9776300529289
 20
151.178196910299
 30
0.0
 11
481.9776300529289
 21
158.178196910299
 31
0.0
 70
    33
  1
<>
 71
     5
 42
-1.0
 53
0.00013888888889
  3
ME10_DIM_15
100
AcDbAlignedDimension
 13
497.9776300529289
 23
168.6541151959623
 33
0.0
 14
465.9776300529289
 24
168.6541151959623
 34
0.0
  0
DIMENSION
  5
2E3
330
1F
100
AcDbEntity
  8
1
100
AcDbDimension
  2
*D9
 10
259.9987162863899
 20
131.178196910299
 30
0.0
 11
307.7487162863899
 21
138.478196910299
 31
0.0
 70
    32
  1
<>
 71
     5
 42
-1.0
 53
0.00013888888889
  3
ME10_DIM_16
100
AcDbAlignedDimension
 13
355.4987162863899
 23
171.178196910299
 33
0.0
 14
259.9987162863899
 24
171.178196910299
 34
0.0
100
AcDbRotatedDimension
  0
DIMENSION
  5
2EE
330
1F
100
AcDbEntity
  8
1
100
AcDbDimension
  2
*D10
 10
452.9776300529235
 20
235.6781969102913
 30
0.0
 11
481.9776300529235
 21
242.6781969102913
 31
0.0
 70
    32
  1
<>
 71
     5
 42
-1.0
 53
0.00013888888889
  3
ME10_DIM_17
100
AcDbAlignedDimension
 13
510.9776300529235
 23
215.6781969102958
 33
0.0
 14
452.9776300529235
 24
215.6781969102894
 34
0.0
100
AcDbRotatedDimension
  0
DIMENSION
  5
2F9
330
1F
100
AcDbEntity
  8
1
100
AcDbDimension
  2
*D11
 10
64.67180382512697
 20
245.0901044932991
 30
0.0
 11
57.67180382512697
 21
212.5901044932991
 31
0.0
 70
    32
  1
<>
 71
     5
 42
-1.0
 53
90.0
  3
ME10_DIM_18
100
AcDbAlignedDimension
 13
84.67180382512686
 23
180.0901044932991
 33
0.0
 14
84.67180382512697
 24
245.0901044932991
 34
0.0
 50
90.0
100
AcDbRotatedDimension
  0
DIMENSION
  5
304
330
1F
100
AcDbEntity
  8
1
100
AcDbDimension
  2
*D12
 10
139.671803825127
 20
254.090104493299
 30
0.0
 11
132.671803825127
 21
212.590104493299
 31
0.0
 70
    32
  1
<>
 71
     5
 42
-1.0
 53
90.0
  3
ME10_DIM_19
100
AcDbAlignedDimension
 13
125.421803825127
 23
171.090104493299
 33
0.0
 14
125.421803825127
 24
254.090104493299
 34
0.0
 50
90.0
100
AcDbRotatedDimension
  0
DIMENSION
  5
30F
330
1F
100
AcDbEntity
  8
1
100
AcDbDimension
  2
*D13
 10
86.17180382512679
 20
274.090104493299
 30
0.0
 11
102.1718038251269
 21
281.090104493299
 31
0.0
 70
    32
  1
<>
 71
     5
 42
-1.0
 53
0.00013888888889
  3
ME10_DIM_20
100
AcDbAlignedDimension
 13
118.171803825127
 23
261.340104493299
 33
0.0
 14
86.17180382512674
 24
261.340104493299
 34
0.0
100
AcDbRotatedDimension
  0
DIMENSION
  5
31A
330
1F
100
AcDbEntity
  8
1
100
AcDbDimension
  2
*D14
 10
84.67180382512686
 20
151.5901044932991
 30
0.0
 11
102.1718038251269
 21
158.5901044932991
 31
0.0
 70
    32
  1
<>
 71
     5
 42
-1.0
 53
0.00013888888889
  3
ME10_DIM_21
100
AcDbAlignedDimension
 13
119.671803825127
 23
180.090104493299
 33
0.0
 14
84.67180382512686
 24
180.0901044932991
 34
0.0
100
AcDbRotatedDimension
  0
INSERT
  5
323
330
1F
100
AcDbEntity
  8
1
100
AcDbBlockReference
  2
*D15
 10
0.0
 20
0.0
 30
0.0
  0
ENDSEC
  0
SECTION
  2
OBJECTS
  0
DICTIONARY
  5
C
330
0
100
AcDbDictionary
281
     1
  3
ACAD_GROUP
350
D
  3
ACAD_LAYOUT
350
1A
  3
ACAD_MATERIAL
350
3B
  3
ACAD_MLEADERSTYLE
350
326
  3
ACAD_MLINESTYLE
350
17
  3
ACAD_PLOTSETTINGS
350
19
  3
ACAD_PLOTSTYLENAME
350
E
  3
ACAD_VISUALSTYLE
350
2A
  3
AcDbVariableDictionary
350
324
  0
DICTIONARY
  5
D
102
{ACAD_REACTORS
330
C
102
}
330
C
100
AcDbDictionary
281
     1
  0
DICTIONARY
  5
1A
102
{ACAD_REACTORS
330
C
102
}
330
C
100
AcDbDictionary
281
     1
  3
Layout1
350
1E
  3
Layout2
350
26
  3
Model
350
22
  0
DICTIONARY
  5
3B
102
{ACAD_REACTORS
330
C
102
}
330
C
100
AcDbDictionary
281
     1
  3
ByBlock
350
3D
  3
ByLayer
350
3C
  3
Global
350
3E
  0
DICTIONARY
  5
326
102
{ACAD_REACTORS
330
C
102
}
330
C
100
AcDbDictionary
281
     1
  0
DICTIONARY
  5
17
102
{ACAD_REACTORS
330
C
102
}
330
C
100
AcDbDictionary
281
     1
  3
Standard
350
18
  0
DICTIONARY
  5
19
102
{ACAD_REACTORS
330
C
102
}
330
C
100
AcDbDictionary
281
     1
  0
ACDBDICTIONARYWDFLT
  5
E
102
{ACAD_REACTORS
330
C
102
}
330
C
100
AcDbDictionary
281
     1
  3
Normal
350
F
100
AcDbDictionaryWithDefault
340
F
  0
DICTIONARY
  5
2A
102
{ACAD_REACTORS
330
C
102
}
330
C
100
AcDbDictionary
281
     1
  3
2dWireframe
350
2F
  3
3D Hidden
350
31
  3
3dWireframe
350
30
  3
Basic
350
32
  3
Brighten
350
36
  3
ColorChange
350
3A
  3
Conceptual
350
34
  3
Dim
350
35
  3
Facepattern
350
39
  3
Flat
350
2B
  3
FlatWithEdges
350
2C
  3
Gouraud
350
2D
  3
GouraudWithEdges
350
2E
  3
Linepattern
350
38
  3
Realistic
350
33
  3
Thicken
350
37
  0
DICTIONARY
  5
324
102
{ACAD_REACTORS
330
C
102
}
330
C
100
AcDbDictionary
281
     1
  3
DIMASSOC
350
327
  3
HIDETEXT
350
328
  0
LAYOUT
  5
1E
102
{ACAD_REACTORS
330
1A
102
}
330
1A
100
AcDbPlotSettings
  1

  2
none_device
  4

  6

 40
0.0
 41
0.0
 42
0.0
 43
0.0
 44
0.0
 45
0.0
 46
0.0
 47
0.0
 48
0.0
 49
0.0
140
0.0
141
0.0
142
1.0
143
1.0
 70
   688
 72
     0
 73
     0
 74
     5
  7

 75
    16
147
1.0
148
0.0
149
0.0
100
AcDbLayout
  1
Layout1
 70
     1
 71
     1
 10
0.0
 20
0.0
 11
12.0
 21
9.0
 12
0.0
 22
0.0
 32
0.0
 14
1.00000000000000E+20
 24
1.00000000000000E+20
 34
1.00000000000000E+20
 15
-1.00000000000000E+20
 25
-1.00000000000000E+20
 35
-1.00000000000000E+20
146
0.0
 13
0.0
 23
0.0
 33
0.0
 16
1.0
 26
0.0
 36
0.0
 17
0.0
 27
1.0
 37
0.0
 76
     0
330
1B
  0
LAYOUT
  5
26
102
{ACAD_REACTORS
330
1A
102
}
330
1A
100
AcDbPlotSettings
  1

  2
none_device
  4

  6

 40
0.0
 41
0.0
 42
0.0
 43
0.0
 44
0.0
 45
0.0
 46
0.0
 47
0.0
 48
0.0
 49
0.0
140
0.0
141
0.0
142
1.0
143
1.0
 70
   688
 72
     0
 73
     0
 74
     5
  7

 75
    16
147
1.0
148
0.0
149
0.0
100
AcDbLayout
  1
Layout2
 70
     1
 71
     2
 10
0.0
 20
0.0
 11
0.0
 21
0.0
 12
0.0
 22
0.0
 32
0.0
 14
0.0
 24
0.0
 34
0.0
 15
0.0
 25
0.0
 35
0.0
146
0.0
 13
0.0
 23
0.0
 33
0.0
 16
1.0
 26
0.0
 36
0.0
 17
0.0
 27
1.0
 37
0.0
 76
     0
330
23
  0
LAYOUT
  5
22
102
{ACAD_REACTORS
330
1A
102
}
330
1A
100
AcDbPlotSettings
  1

  2
none_device
  4

  6

 40
0.0
 41
0.0
 42
0.0
 43
0.0
 44
0.0
 45
0.0
 46
0.0
 47
0.0
 48
0.0
 49
0.0
140
0.0
141
0.0
142
1.0
143
1.0
 70
  1712
 72
     0
 73
     0
 74
     0
  7

 75
     0
147
1.0
148
0.0
149
0.0
100
AcDbLayout
  1
Model
 70
     1
 71
     0
 10
0.0
 20
0.0
 11
12.0
 21
9.0
 12
0.0
 22
0.0
 32
0.0
 14
0.0
 24
0.0
 34
0.0
 15
594.0000000000005
 25
420.0000000000002
 35
0.0
146
0.0
 13
0.0
 23
0.0
 33
0.0
 16
1.0
 26
0.0
 36
0.0
 17
0.0
 27
1.0
 37
0.0
 76
     0
330
1F
331
29
  0
MATERIAL
  5
3D
102
{ACAD_REACTORS
330
3B
102
}
102
{ACAD_XDICTIONARY
360
34B
102
}
330
3B
100
AcDbMaterial
  1
ByBlock
  0
MATERIAL
  5
3C
102
{ACAD_REACTORS
330
3B
102
}
102
{ACAD_XDICTIONARY
360
349
102
}
330
3B
100
AcDbMaterial
  1
ByLayer
  0
MATERIAL
  5
3E
102
{ACAD_REACTORS
330
3B
102
}
102
{ACAD_XDICTIONARY
360
34D
102
}
330
3B
100
AcDbMaterial
  1
Global
  0
MLINESTYLE
  5
18
102
{ACAD_REACTORS
330
17
102
}
330
17
100
AcDbMlineStyle
  2
Standard
 70
     0
  3

 62
   256
 51
90.0
 52
90.0
 71
     2
 49
0.5
 62
   256
  6
BYLAYER
 49
-0.5
 62
   256
  6
BYLAYER
  0
ACDBPLACEHOLDER
  5
F
102
{ACAD_REACTORS
330
E
102
}
330
E
  0
VISUALSTYLE
  5
2F
102
{ACAD_REACTORS
330
2A
102
}
102
{ACAD_XDICTIONARY
360
331
102
}
330
2A
100
AcDbVisualStyle
  2
2dWireframe
 70
     4
 71
     0
 72
     2
 73
     0
 90
        0
 40
-0.6
 41
-30.0
 62
     5
 63
     7
 74
     1
 91
        4
 64
     7
 65
   257
 75
     1
175
     1
 42
1.0
 92
        0
 66
   257
 43
1.0
 76
     1
 77
     6
 78
     2
 67
     7
 79
     5
170
     0
171
     0
290
     0
174
     0
 93
        1
 44
0.0
173
     0
291
     0
 45
0.0
1001
ACAD
1000
AcDbSavedByObjectVersion
1070
     0
  0
VISUALSTYLE
  5
31
102
{ACAD_REACTORS
330
2A
102
}
102
{ACAD_XDICTIONARY
360
335
102
}
330
2A
100
AcDbVisualStyle
  2
3D Hidden
 70
     6
 71
     1
 72
     2
 73
     2
 90
        0
 40
-0.6
 41
-30.0
 62
     5
 63
     7
 74
     2
 91
        2
 64
     7
 65
   257
 75
     2
175
     1
 42
40.0
 92
        0
 66
   257
 43
1.0
 76
     1
 77
     6
 78
     2
 67
     7
 79
     3
170
     0
171
     0
290
     0
174
     0
 93
        1
 44
0.0
173
     0
291
     0
 45
0.0
1001
ACAD
1000
AcDbSavedByObjectVersion
1070
     0
  0
VISUALSTYLE
  5
30
102
{ACAD_REACTORS
330
2A
102
}
102
{ACAD_XDICTIONARY
360
333
102
}
330
2A
100
AcDbVisualStyle
  2
3dWireframe
 70
     5
 71
     0
 72
     2
 73
     0
 90
        0
 40
-0.6
 41
-30.0
 62
     5
 63
     7
 74
     1
 91
        4
 64
     7
 65
   257
 75
     1
175
     1
 42
1.0
 92
        0
 66
   257
 43
1.0
 76
     1
 77
     6
 78
     2
 67
     7
 79
     5
170
     0
171
     0
290
     0
174
     0
 93
        1
 44
0.0
173
     0
291
     0
 45
0.0
1001
ACAD
1000
AcDbSavedByObjectVersion
1070
     0
  0
VISUALSTYLE
  5
32
102
{ACAD_REACTORS
330
2A
102
}
102
{ACAD_XDICTIONARY
360
337
102
}
330
2A
100
AcDbVisualStyle
  2
Basic
 70
     7
 71
     1
 72
     0
 73
     1
 90
        0
 40
-0.6
 41
-30.0
 62
     5
 63
     7
 74
     0
 91
        4
 64
     7
 65
   257
 75
     1
175
     1
 42
1.0
 92
        8
 66
     7
 43
1.0
 76
     1
 77
     6
 78
     2
 67
     7
 79
     5
170
     0
171
     0
290
     0
174
     0
 93
        1
 44
0.0
173
     0
291
     1
 45
0.0
1001
ACAD
1000
AcDbSavedByObjectVersion
1070
     0
  0
VISUALSTYLE
  5
36
102
{ACAD_REACTORS
330
2A
102
}
102
{ACAD_XDICTIONARY
360
33F
102
}
330
2A
100
AcDbVisualStyle
  2
Brighten
 70
    12
 71
     2
 72
     2
 73
     0
 90
        0
 40
-0.6
 41
-30.0
 62
     5
 63
     7
 74
     1
 91
        4
 64
     7
 65
   257
 75
     1
175
     1
 42
1.0
 92
        8
 66
     7
 43
1.0
 76
     1
 77
     6
 78
     2
 67
     7
 79
     5
170
     0
171
     0
290
     0
174
     0
 93
        1
 44
50.0
173
     0
291
     1
 45
0.0
1001
ACAD
1000
AcDbSavedByObjectVersion
1070
     0
  0
VISUALSTYLE
  5
3A
102
{ACAD_REACTORS
330
2A
102
}
102
{ACAD_XDICTIONARY
360
347
102
}
330
2A
100
AcDbVisualStyle
  2
ColorChange
 70
    16
 71
     2
 72
     2
 73
     3
 90
        0
 40
-0.6
 41
-30.0
 62
     5
 63
     8
 74
     1
 91
        4
 64
     7
 65
   257
 75
     1
175
     1
 42
1.0
 92
        8
 66
     8
 43
1.0
 76
     1
 77
     6
 78
     2
 67
     7
 79
     5
170
     0
171
     0
290
     0
174
     0
 93
        1
 44
0.0
173
     0
291
     1
 45
0.0
1001
ACAD
1000
AcDbSavedByObjectVersion
1070
     0
  0
VISUALSTYLE
  5
34
102
{ACAD_REACTORS
330
2A
102
}
102
{ACAD_XDICTIONARY
360
33B
102
}
330
2A
100
AcDbVisualStyle
  2
Conceptual
 70
     9
 71
     3
 72
     2
 73
     0
 90
        0
 40
-0.6
 41
-30.0
 62
     5
 63
     7
 74
     2
 91
        2
 64
     7
 65
   257
 75
     1
175
     1
 42
40.0
 92
        8
 66
     7
 43
1.0
 76
     1
 77
     6
 78
     2
 67
     7
 79
     3
170
     0
171
     0
290
     0
174
     0
 93
        1
 44
0.0
173
     0
291
     0
 45
0.0
1001
ACAD
1000
AcDbSavedByObjectVersion
1070
     0
  0
VISUALSTYLE
  5
35
102
{ACAD_REACTORS
330
2A
102
}
102
{ACAD_XDICTIONARY
360
33D
102
}
330
2A
100
AcDbVisualStyle
  2
Dim
 70
    11
 71
     2
 72
     2
 73
     0
 90
        0
 40
-0.6
 41
-30.0
 62
     5
 63
     7
 74
     1
 91
        4
 64
     7
 65
   257
 75
     1
175
     1
 42
1.0
 92
        8
 66
     7
 43
1.0
 76
     1
 77
     6
 78
     2
 67
     7
 79
     5
170
     0
171
     0
290
     0
174
     0
 93
        1
 44
-50.0
173
     0
291
     1
 45
0.0
1001
ACAD
1000
AcDbSavedByObjectVersion
1070
     0
  0
VISUALSTYLE
  5
39
102
{ACAD_REACTORS
330
2A
102
}
102
{ACAD_XDICTIONARY
360
345
102
}
330
2A
100
AcDbVisualStyle
  2
Facepattern
 70
    15
 71
     2
 72
     2
 73
     0
 90
        0
 40
-0.6
 41
-30.0
 62
     5
 63
     7
 74
     1
 91
        4
 64
     7
 65
   257
 75
     1
175
     1
 42
1.0
 92
        8
 66
     7
 43
1.0
 76
     1
 77
     6
 78
     2
 67
     7
 79
     5
170
     0
171
     0
290
     0
174
     0
 93
        1
 44
0.0
173
     0
291
     1
 45
0.0
1001
ACAD
1000
AcDbSavedByObjectVersion
1070
     0
  0
VISUALSTYLE
  5
2B
102
{ACAD_REACTORS
330
2A
102
}
102
{ACAD_XDICTIONARY
360
329
102
}
330
2A
100
AcDbVisualStyle
  2
Flat
 70
     0
 71
     2
 72
     1
 73
     1
 90
        2
 40
-0.6
 41
30.0
 62
     5
 63
     7
 74
     0
 91
        4
 64
     7
 65
   257
 75
     1
175
     1
 42
1.0
 92
        8
 66
     7
 43
1.0
 76
     1
 77
     6
 78
     2
 67
     7
 79
     5
170
     0
171
     0
290
     0
174
     0
 93
       13
 44
0.0
173
     0
291
     1
 45
0.0
1001
ACAD
1000
AcDbSavedByObjectVersion
1070
     0
  0
VISUALSTYLE
  5
2C
102
{ACAD_REACTORS
330
2A
102
}
102
{ACAD_XDICTIONARY
360
32B
102
}
330
2A
100
AcDbVisualStyle
  2
FlatWithEdges
 70
     1
 71
     2
 72
     1
 73
     1
 90
        2
 40
-0.6
 41
30.0
 62
     5
 63
     7
 74
     1
 91
        4
 64
     7
 65
   257
 75
     1
175
     1
 42
1.0
 92
        0
 66
   257
 43
1.0
 76
     1
 77
     6
 78
     2
 67
     7
 79
     5
170
     0
171
     0
290
     0
174
     0
 93
       13
 44
0.0
173
     0
291
     1
 45
0.0
1001
ACAD
1000
AcDbSavedByObjectVersion
1070
     0
  0
VISUALSTYLE
  5
2D
102
{ACAD_REACTORS
330
2A
102
}
102
{ACAD_XDICTIONARY
360
32D
102
}
330
2A
100
AcDbVisualStyle
  2
Gouraud
 70
     2
 71
     2
 72
     2
 73
     1
 90
        2
 40
-0.6
 41
30.0
 62
     5
 63
     7
 74
     0
 91
        4
 64
     7
 65
   257
 75
     1
175
     1
 42
1.0
 92
        0
 66
     7
 43
1.0
 76
     1
 77
     6
 78
     2
 67
     7
 79
     5
170
     0
171
     0
290
     0
174
     0
 93
       13
 44
0.0
173
     0
291
     1
 45
0.0
1001
ACAD
1000
AcDbSavedByObjectVersion
1070
     0
  0
VISUALSTYLE
  5
2E
102
{ACAD_REACTORS
330
2A
102
}
102
{ACAD_XDICTIONARY
360
32F
102
}
330
2A
100
AcDbVisualStyle
  2
GouraudWithEdges
 70
     3
 71
     2
 72
     2
 73
     1
 90
        2
 40
-0.6
 41
30.0
 62
     5
 63
     7
 74
     1
 91
        4
 64
     7
 65
   257
 75
     1
175
     1
 42
1.0
 92
        0
 66
   257
 43
1.0
 76
     1
 77
     6
 78
     2
 67
     7
 79
     5
170
     0
171
     0
290
     0
174
     0
 93
       13
 44
0.0
173
     0
291
     1
 45
0.0
1001
ACAD
1000
AcDbSavedByObjectVersion
1070
     0
  0
VISUALSTYLE
  5
38
102
{ACAD_REACTORS
330
2A
102
}
102
{ACAD_XDICTIONARY
360
343
102
}
330
2A
100
AcDbVisualStyle
  2
Linepattern
 70
    14
 71
     2
 72
     2
 73
     0
 90
        0
 40
-0.6
 41
-30.0
 62
     5
 63
     7
 74
     1
 91
        4
 64
     7
 65
   257
 75
     7
175
     7
 42
1.0
 92
        8
 66
     7
 43
1.0
 76
     1
 77
     6
 78
     2
 67
     7
 79
     5
170
     0
171
     0
290
     0
174
     0
 93
        1
 44
0.0
173
     0
291
     1
 45
0.0
1001
ACAD
1000
AcDbSavedByObjectVersion
1070
     0
  0
VISUALSTYLE
  5
33
102
{ACAD_REACTORS
330
2A
102
}
102
{ACAD_XDICTIONARY
360
339
102
}
330
2A
100
AcDbVisualStyle
  2
Realistic
 70
     8
 71
     2
 72
     2
 73
     0
 90
        0
 40
-0.6
 41
-30.0
 62
     5
 63
     7
 74
     1
 91
        0
 64
     7
 65
   257
 75
     1
175
     1
 42
1.0
 92
        8
 66
     8
 43
1.0
 76
     1
 77
     6
 78
     2
 67
     7
 79
     5
170
     0
171
     0
290
     0
174
     0
 93
       13
 44
0.0
173
     0
291
     0
 45
0.0
1001
ACAD
1000
AcDbSavedByObjectVersion
1070
     0
  0
VISUALSTYLE
  5
37
102
{ACAD_REACTORS
330
2A
102
}
102
{ACAD_XDICTIONARY
360
341
102
}
330
2A
100
AcDbVisualStyle
  2
Thicken
 70
    13
 71
     2
 72
     2
 73
     0
 90
        0
 40
-0.6
 41
-30.0
 62
     5
 63
     7
 74
     1
 91
        4
 64
     7
 65
   257
 75
     1
175
     1
 42
1.0
 92
       12
 66
     7
 43
1.0
 76
     1
 77
     6
 78
     2
 67
     7
 79
     5
170
     0
171
     0
290
     0
174
     0
 93
        1
 44
0.0
173
     0
291
     1
 45
0.0
1001
ACAD
1000
AcDbSavedByObjectVersion
1070
     0
  0
DICTIONARYVAR
  5
327
102
{ACAD_REACTORS
330
324
102
}
330
324
100
DictionaryVariables
280
     0
  1
2
  0
DICTIONARYVAR
  5
328
102
{ACAD_REACTORS
330
324
102
}
330
324
100
DictionaryVariables
280
     0
  1
1
  0
DICTIONARY
  5
34B
330
3D
100
AcDbDictionary
280
     1
281
     1
  3
ACAD_XREC_ROUNDTRIP
360
34C
  0
DICTIONARY
  5
349
330
3C
100
AcDbDictionary
280
     1
281
     1
  3
ACAD_XREC_ROUNDTRIP
360
34A
  0
DICTIONARY
  5
34D
330
3E
100
AcDbDictionary
280
     1
281
     1
  3
ACAD_XREC_ROUNDTRIP
360
34E
  0
DICTIONARY
  5
331
330
2F
100
AcDbDictionary
280
     1
281
     1
  3
ACAD_XREC_ROUNDTRIP
360
332
  0
DICTIONARY
  5
335
330
31
100
AcDbDictionary
280
     1
281
     1
  3
ACAD_XREC_ROUNDTRIP
360
336
  0
DICTIONARY
  5
333
330
30
100
AcDbDictionary
280
     1
281
     1
  3
ACAD_XREC_ROUNDTRIP
360
334
  0
DICTIONARY
  5
337
330
32
100
AcDbDictionary
280
     1
281
     1
  3
ACAD_XREC_ROUNDTRIP
360
338
  0
DICTIONARY
  5
33F
330
36
100
AcDbDictionary
280
     1
281
     1
  3
ACAD_XREC_ROUNDTRIP
360
340
  0
DICTIONARY
  5
347
330
3A
100
AcDbDictionary
280
     1
281
     1
  3
ACAD_XREC_ROUNDTRIP
360
348
  0
DICTIONARY
  5
33B
330
34
100
AcDbDictionary
280
     1
281
     1
  3
ACAD_XREC_ROUNDTRIP
360
33C
  0
DICTIONARY
  5
33D
330
35
100
AcDbDictionary
280
     1
281
     1
  3
ACAD_XREC_ROUNDTRIP
360
33E
  0
DICTIONARY
  5
345
330
39
100
AcDbDictionary
280
     1
281
     1
  3
ACAD_XREC_ROUNDTRIP
360
346
  0
DICTIONARY
  5
329
330
2B
100
AcDbDictionary
280
     1
281
     1
  3
ACAD_XREC_ROUNDTRIP
360
32A
  0
DICTIONARY
  5
32B
330
2C
100
AcDbDictionary
280
     1
281
     1
  3
ACAD_XREC_ROUNDTRIP
360
32C
  0
DICTIONARY
  5
32D
330
2D
100
AcDbDictionary
280
     1
281
     1
  3
ACAD_XREC_ROUNDTRIP
360
32E
  0
DICTIONARY
  5
32F
330
2E
100
AcDbDictionary
280
     1
281
     1
  3
ACAD_XREC_ROUNDTRIP
360
330
  0
DICTIONARY
  5
343
330
38
100
AcDbDictionary
280
     1
281
     1
  3
ACAD_XREC_ROUNDTRIP
360
344
  0
DICTIONARY
  5
339
330
33
100
AcDbDictionary
280
     1
281
     1
  3
ACAD_XREC_ROUNDTRIP
360
33A
  0
DICTIONARY
  5
341
330
37
100
AcDbDictionary
280
     1
281
     1
  3
ACAD_XREC_ROUNDTRIP
360
342
  0
XRECORD
  5
34C
102
{ACAD_REACTORS
330
34B
102
}
330
34B
100
AcDbXrecord
280
     1
102
MATERIAL
148
0.0
149
0.0
149
0.0
 93
        0
 94
      127
282
     0
 72
     1
 77
     1
171
     1
175
     1
179
     1
273
     0
  0
XRECORD
  5
34A
102
{ACAD_REACTORS
330
349
102
}
330
349
100
AcDbXrecord
280
     1
102
MATERIAL
148
0.0
149
0.0
149
0.0
 93
        0
 94
      127
282
     0
 72
     1
 77
     1
171
     1
175
     1
179
     1
273
     0
  0
XRECORD
  5
34E
102
{ACAD_REACTORS
330
34D
102
}
330
34D
100
AcDbXrecord
280
     1
102
MATERIAL
148
0.0
149
0.0
149
0.0
 93
        0
 94
      127
282
     0
 72
     1
 77
     1
171
     1
175
     1
179
     1
273
     0
  0
XRECORD
  5
332
102
{ACAD_REACTORS
330
331
102
}
330
331
100
AcDbXrecord
280
     1
102
RTVSPropertyOp0
 70
     1
102
RTVSPropertyOp1
 70
     1
102
RTVSPropertyOp2
 70
     1
102
RTVSPropertyOp3
 70
     1
102
RTVSPropertyOp4
 70
     1
102
RTVSPropertyOp5
 70
     1
102
RTVSPropertyOp6
 70
     1
102
RTVSPropertyOp7
 70
     1
102
RTVSPropertyOp8
 70
     1
102
RTVSPropertyOp9
 70
     1
102
RTVSPropertyOp10
 70
     1
102
RTVSPropertyOp11
 70
     1
102
RTVSPropertyOp12
 70
     1
102
RTVSPropertyOp13
 70
     1
102
RTVSPropertyOp14
 70
     1
102
RTVSPropertyOp15
 70
     1
102
RTVSPropertyOp16
 70
     1
102
RTVSPropertyOp17
 70
     1
102
RTVSPropertyOp18
 70
     1
102
RTVSPropertyOp19
 70
     1
102
RTVSPropertyOp20
 70
     1
102
RTVSPropertyOp21
 70
     1
102
RTVSPropertyOp22
 70
     1
102
RTVSPropertyOp23
 70
     1
102
RTVSPropertyOp24
 70
     1
102
RTVSPropertyOp25
 70
     1
102
RTVSPropertyOp26
 70
     1
102
RTVSPropertyOp27
 70
     1
102
RTVSPropertyOp28
 70
     1
102
RTVSPropertyOp29
 70
     1
102
RTVSPropertyOp30
 70
     1
102
RTVSPropertyOp31
 70
     1
102
RTVSPropertyOp32
 70
     1
  0
XRECORD
  5
336
102
{ACAD_REACTORS
330
335
102
}
330
335
100
AcDbXrecord
280
     1
102
RTVSPropertyOp0
 70
     1
102
RTVSPropertyOp1
 70
     1
102
RTVSPropertyOp2
 70
     1
102
RTVSPropertyOp3
 70
     1
102
RTVSPropertyOp4
 70
     1
102
RTVSPropertyOp5
 70
     1
102
RTVSPropertyOp6
 70
     1
102
RTVSPropertyOp7
 70
     1
102
RTVSPropertyOp8
 70
     1
102
RTVSPropertyOp9
 70
     1
102
RTVSPropertyOp10
 70
     1
102
RTVSPropertyOp11
 70
     1
102
RTVSPropertyOp12
 70
     1
102
RTVSPropertyOp13
 70
     1
102
RTVSPropertyOp14
 70
     1
102
RTVSPropertyOp15
 70
     1
102
RTVSPropertyOp16
 70
     1
102
RTVSPropertyOp17
 70
     1
102
RTVSPropertyOp18
 70
     1
102
RTVSPropertyOp19
 70
     1
102
RTVSPropertyOp20
 70
     1
102
RTVSPropertyOp21
 70
     1
102
RTVSPropertyOp22
 70
     1
102
RTVSPropertyOp23
 70
     1
102
RTVSPropertyOp24
 70
     1
102
RTVSPropertyOp25
 70
     1
102
RTVSPropertyOp26
 70
     1
102
RTVSPropertyOp27
 70
     1
102
RTVSPropertyOp28
 70
     1
102
RTVSPropertyOp29
 70
     1
102
RTVSPropertyOp30
 70
     1
102
RTVSPropertyOp31
 70
     1
102
RTVSPropertyOp32
 70
     1
  0
XRECORD
  5
334
102
{ACAD_REACTORS
330
333
102
}
330
333
100
AcDbXrecord
280
     1
102
RTVSPropertyOp0
 70
     1
102
RTVSPropertyOp1
 70
     1
102
RTVSPropertyOp2
 70
     1
102
RTVSPropertyOp3
 70
     1
102
RTVSPropertyOp4
 70
     1
102
RTVSPropertyOp5
 70
     1
102
RTVSPropertyOp6
 70
     1
102
RTVSPropertyOp7
 70
     1
102
RTVSPropertyOp8
 70
     1
102
RTVSPropertyOp9
 70
     1
102
RTVSPropertyOp10
 70
     1
102
RTVSPropertyOp11
 70
     1
102
RTVSPropertyOp12
 70
     1
102
RTVSPropertyOp13
 70
     1
102
RTVSPropertyOp14
 70
     1
102
RTVSPropertyOp15
 70
     1
102
RTVSPropertyOp16
 70
     1
102
RTVSPropertyOp17
 70
     1
102
RTVSPropertyOp18
 70
     1
102
RTVSPropertyOp19
 70
     1
102
RTVSPropertyOp20
 70
     1
102
RTVSPropertyOp21
 70
     1
102
RTVSPropertyOp22
 70
     1
102
RTVSPropertyOp23
 70
     1
102
RTVSPropertyOp24
 70
     1
102
RTVSPropertyOp25
 70
     1
102
RTVSPropertyOp26
 70
     1
102
RTVSPropertyOp27
 70
     1
102
RTVSPropertyOp28
 70
     1
102
RTVSPropertyOp29
 70
     1
102
RTVSPropertyOp30
 70
     1
102
RTVSPropertyOp31
 70
     1
102
RTVSPropertyOp32
 70
     1
  0
XRECORD
  5
338
102
{ACAD_REACTORS
330
337
102
}
330
337
100
AcDbXrecord
280
     1
102
RTVSPropertyOp0
 70
     1
102
RTVSPropertyOp1
 70
     1
102
RTVSPropertyOp2
 70
     1
102
RTVSPropertyOp3
 70
     1
102
RTVSPropertyOp4
 70
     1
102
RTVSPropertyOp5
 70
     1
102
RTVSPropertyOp6
 70
     1
102
RTVSPropertyOp7
 70
     1
102
RTVSPropertyOp8
 70
     1
102
RTVSPropertyOp9
 70
     1
102
RTVSPropertyOp10
 70
     1
102
RTVSPropertyOp11
 70
     1
102
RTVSPropertyOp12
 70
     1
102
RTVSPropertyOp13
 70
     1
102
RTVSPropertyOp14
 70
     1
102
RTVSPropertyOp15
 70
     1
102
RTVSPropertyOp16
 70
     1
102
RTVSPropertyOp17
 70
     1
102
RTVSPropertyOp18
 70
     1
102
RTVSPropertyOp19
 70
     1
102
RTVSPropertyOp20
 70
     1
102
RTVSPropertyOp21
 70
     1
102
RTVSPropertyOp22
 70
     1
102
RTVSPropertyOp23
 70
     1
102
RTVSPropertyOp24
 70
     1
102
RTVSPropertyOp25
 70
     1
102
RTVSPropertyOp26
 70
     1
102
RTVSPropertyOp27
 70
     1
102
RTVSPropertyOp28
 70
     1
102
RTVSPropertyOp29
 70
     1
102
RTVSPropertyOp30
 70
     1
102
RTVSPropertyOp31
 70
     1
102
RTVSPropertyOp32
 70
     1
  0
XRECORD
  5
340
102
{ACAD_REACTORS
330
33F
102
}
330
33F
100
AcDbXrecord
280
     1
102
RTVSPropertyOp0
 70
     1
102
RTVSPropertyOp1
 70
     1
102
RTVSPropertyOp2
 70
     1
102
RTVSPropertyOp3
 70
     1
102
RTVSPropertyOp4
 70
     1
102
RTVSPropertyOp5
 70
     1
102
RTVSPropertyOp6
 70
     1
102
RTVSPropertyOp7
 70
     1
102
RTVSPropertyOp8
 70
     1
102
RTVSPropertyOp9
 70
     1
102
RTVSPropertyOp10
 70
     1
102
RTVSPropertyOp11
 70
     1
102
RTVSPropertyOp12
 70
     1
102
RTVSPropertyOp13
 70
     1
102
RTVSPropertyOp14
 70
     1
102
RTVSPropertyOp15
 70
     1
102
RTVSPropertyOp16
 70
     1
102
RTVSPropertyOp17
 70
     1
102
RTVSPropertyOp18
 70
     1
102
RTVSPropertyOp19
 70
     1
102
RTVSPropertyOp20
 70
     1
102
RTVSPropertyOp21
 70
     1
102
RTVSPropertyOp22
 70
     1
102
RTVSPropertyOp23
 70
     1
102
RTVSPropertyOp24
 70
     1
102
RTVSPropertyOp25
 70
     1
102
RTVSPropertyOp26
 70
     1
102
RTVSPropertyOp27
 70
     1
102
RTVSPropertyOp28
 70
     1
102
RTVSPropertyOp29
 70
     1
102
RTVSPropertyOp30
 70
     1
102
RTVSPropertyOp31
 70
     1
102
RTVSPropertyOp32
 70
     1
  0
XRECORD
  5
348
102
{ACAD_REACTORS
330
347
102
}
330
347
100
AcDbXrecord
280
     1
102
RTVSPropertyOp0
 70
     1
102
RTVSPropertyOp1
 70
     1
102
RTVSPropertyOp2
 70
     1
102
RTVSPropertyOp3
 70
     1
102
RTVSPropertyOp4
 70
     1
102
RTVSPropertyOp5
 70
     1
102
RTVSPropertyOp6
 70
     1
102
RTVSPropertyOp7
 70
     1
102
RTVSPropertyOp8
 70
     1
102
RTVSPropertyOp9
 70
     1
102
RTVSPropertyOp10
 70
     1
102
RTVSPropertyOp11
 70
     1
102
RTVSPropertyOp12
 70
     1
102
RTVSPropertyOp13
 70
     1
102
RTVSPropertyOp14
 70
     1
102
RTVSPropertyOp15
 70
     1
102
RTVSPropertyOp16
 70
     1
102
RTVSPropertyOp17
 70
     1
102
RTVSPropertyOp18
 70
     1
102
RTVSPropertyOp19
 70
     1
102
RTVSPropertyOp20
 70
     1
102
RTVSPropertyOp21
 70
     1
102
RTVSPropertyOp22
 70
     1
102
RTVSPropertyOp23
 70
     1
102
RTVSPropertyOp24
 70
     1
102
RTVSPropertyOp25
 70
     1
102
RTVSPropertyOp26
 70
     1
102
RTVSPropertyOp27
 70
     1
102
RTVSPropertyOp28
 70
     1
102
RTVSPropertyOp29
 70
     1
102
RTVSPropertyOp30
 70
     1
102
RTVSPropertyOp31
 70
     1
102
RTVSPropertyOp32
 70
     1
  0
XRECORD
  5
33C
102
{ACAD_REACTORS
330
33B
102
}
330
33B
100
AcDbXrecord
280
     1
102
RTVSPropertyOp0
 70
     1
102
RTVSPropertyOp1
 70
     1
102
RTVSPropertyOp2
 70
     1
102
RTVSPropertyOp3
 70
     1
102
RTVSPropertyOp4
 70
     1
102
RTVSPropertyOp5
 70
     1
102
RTVSPropertyOp6
 70
     1
102
RTVSPropertyOp7
 70
     1
102
RTVSPropertyOp8
 70
     1
102
RTVSPropertyOp9
 70
     1
102
RTVSPropertyOp10
 70
     1
102
RTVSPropertyOp11
 70
     1
102
RTVSPropertyOp12
 70
     1
102
RTVSPropertyOp13
 70
     1
102
RTVSPropertyOp14
 70
     1
102
RTVSPropertyOp15
 70
     1
102
RTVSPropertyOp16
 70
     1
102
RTVSPropertyOp17
 70
     1
102
RTVSPropertyOp18
 70
     1
102
RTVSPropertyOp19
 70
     1
102
RTVSPropertyOp20
 70
     1
102
RTVSPropertyOp21
 70
     1
102
RTVSPropertyOp22
 70
     1
102
RTVSPropertyOp23
 70
     1
102
RTVSPropertyOp24
 70
     1
102
RTVSPropertyOp25
 70
     1
102
RTVSPropertyOp26
 70
     1
102
RTVSPropertyOp27
 70
     1
102
RTVSPropertyOp28
 70
     1
102
RTVSPropertyOp29
 70
     1
102
RTVSPropertyOp30
 70
     1
102
RTVSPropertyOp31
 70
     1
102
RTVSPropertyOp32
 70
     1
  0
XRECORD
  5
33E
102
{ACAD_REACTORS
330
33D
102
}
330
33D
100
AcDbXrecord
280
     1
102
RTVSPropertyOp0
 70
     1
102
RTVSPropertyOp1
 70
     1
102
RTVSPropertyOp2
 70
     1
102
RTVSPropertyOp3
 70
     1
102
RTVSPropertyOp4
 70
     1
102
RTVSPropertyOp5
 70
     1
102
RTVSPropertyOp6
 70
     1
102
RTVSPropertyOp7
 70
     1
102
RTVSPropertyOp8
 70
     1
102
RTVSPropertyOp9
 70
     1
102
RTVSPropertyOp10
 70
     1
102
RTVSPropertyOp11
 70
     1
102
RTVSPropertyOp12
 70
     1
102
RTVSPropertyOp13
 70
     1
102
RTVSPropertyOp14
 70
     1
102
RTVSPropertyOp15
 70
     1
102
RTVSPropertyOp16
 70
     1
102
RTVSPropertyOp17
 70
     1
102
RTVSPropertyOp18
 70
     1
102
RTVSPropertyOp19
 70
     1
102
RTVSPropertyOp20
 70
     1
102
RTVSPropertyOp21
 70
     1
102
RTVSPropertyOp22
 70
     1
102
RTVSPropertyOp23
 70
     1
102
RTVSPropertyOp24
 70
     1
102
RTVSPropertyOp25
 70
     1
102
RTVSPropertyOp26
 70
     1
102
RTVSPropertyOp27
 70
     1
102
RTVSPropertyOp28
 70
     1
102
RTVSPropertyOp29
 70
     1
102
RTVSPropertyOp30
 70
     1
102
RTVSPropertyOp31
 70
     1
102
RTVSPropertyOp32
 70
     1
  0
XRECORD
  5
346
102
{ACAD_REACTORS
330
345
102
}
330
345
100
AcDbXrecord
280
     1
102
RTVSPropertyOp0
 70
     1
102
RTVSPropertyOp1
 70
     1
102
RTVSPropertyOp2
 70
     1
102
RTVSPropertyOp3
 70
     1
102
RTVSPropertyOp4
 70
     1
102
RTVSPropertyOp5
 70
     1
102
RTVSPropertyOp6
 70
     1
102
RTVSPropertyOp7
 70
     1
102
RTVSPropertyOp8
 70
     1
102
RTVSPropertyOp9
 70
     1
102
RTVSPropertyOp10
 70
     1
102
RTVSPropertyOp11
 70
     1
102
RTVSPropertyOp12
 70
     1
102
RTVSPropertyOp13
 70
     1
102
RTVSPropertyOp14
 70
     1
102
RTVSPropertyOp15
 70
     1
102
RTVSPropertyOp16
 70
     1
102
RTVSPropertyOp17
 70
     1
102
RTVSPropertyOp18
 70
     1
102
RTVSPropertyOp19
 70
     1
102
RTVSPropertyOp20
 70
     1
102
RTVSPropertyOp21
 70
     1
102
RTVSPropertyOp22
 70
     1
102
RTVSPropertyOp23
 70
     1
102
RTVSPropertyOp24
 70
     1
102
RTVSPropertyOp25
 70
     1
102
RTVSPropertyOp26
 70
     1
102
RTVSPropertyOp27
 70
     1
102
RTVSPropertyOp28
 70
     1
102
RTVSPropertyOp29
 70
     1
102
RTVSPropertyOp30
 70
     1
102
RTVSPropertyOp31
 70
     1
102
RTVSPropertyOp32
 70
     1
  0
XRECORD
  5
32A
102
{ACAD_REACTORS
330
329
102
}
330
329
100
AcDbXrecord
280
     1
102
RTVSPropertyOp0
 70
     1
102
RTVSPropertyOp1
 70
     1
102
RTVSPropertyOp2
 70
     1
102
RTVSPropertyOp3
 70
     1
102
RTVSPropertyOp4
 70
     1
102
RTVSPropertyOp5
 70
     1
102
RTVSPropertyOp6
 70
     1
102
RTVSPropertyOp7
 70
     1
102
RTVSPropertyOp8
 70
     1
102
RTVSPropertyOp9
 70
     1
102
RTVSPropertyOp10
 70
     1
102
RTVSPropertyOp11
 70
     1
102
RTVSPropertyOp12
 70
     1
102
RTVSPropertyOp13
 70
     1
102
RTVSPropertyOp14
 70
     1
102
RTVSPropertyOp15
 70
     1
102
RTVSPropertyOp16
 70
     1
102
RTVSPropertyOp17
 70
     1
102
RTVSPropertyOp18
 70
     1
102
RTVSPropertyOp19
 70
     1
102
RTVSPropertyOp20
 70
     1
102
RTVSPropertyOp21
 70
     1
102
RTVSPropertyOp22
 70
     1
102
RTVSPropertyOp23
 70
     1
102
RTVSPropertyOp24
 70
     1
102
RTVSPropertyOp25
 70
     1
102
RTVSPropertyOp26
 70
     1
102
RTVSPropertyOp27
 70
     1
102
RTVSPropertyOp28
 70
     1
102
RTVSPropertyOp29
 70
     1
102
RTVSPropertyOp30
 70
     1
102
RTVSPropertyOp31
 70
     1
102
RTVSPropertyOp32
 70
     1
  0
XRECORD
  5
32C
102
{ACAD_REACTORS
330
32B
102
}
330
32B
100
AcDbXrecord
280
     1
102
RTVSPropertyOp0
 70
     1
102
RTVSPropertyOp1
 70
     1
102
RTVSPropertyOp2
 70
     1
102
RTVSPropertyOp3
 70
     1
102
RTVSPropertyOp4
 70
     1
102
RTVSPropertyOp5
 70
     1
102
RTVSPropertyOp6
 70
     1
102
RTVSPropertyOp7
 70
     1
102
RTVSPropertyOp8
 70
     1
102
RTVSPropertyOp9
 70
     1
102
RTVSPropertyOp10
 70
     1
102
RTVSPropertyOp11
 70
     1
102
RTVSPropertyOp12
 70
     1
102
RTVSPropertyOp13
 70
     1
102
RTVSPropertyOp14
 70
     1
102
RTVSPropertyOp15
 70
     1
102
RTVSPropertyOp16
 70
     1
102
RTVSPropertyOp17
 70
     1
102
RTVSPropertyOp18
 70
     1
102
RTVSPropertyOp19
 70
     1
102
RTVSPropertyOp20
 70
     1
102
RTVSPropertyOp21
 70
     1
102
RTVSPropertyOp22
 70
     1
102
RTVSPropertyOp23
 70
     1
102
RTVSPropertyOp24
 70
     1
102
RTVSPropertyOp25
 70
     1
102
RTVSPropertyOp26
 70
     1
102
RTVSPropertyOp27
 70
     1
102
RTVSPropertyOp28
 70
     1
102
RTVSPropertyOp29
 70
     1
102
RTVSPropertyOp30
 70
     1
102
RTVSPropertyOp31
 70
     1
102
RTVSPropertyOp32
 70
     1
  0
XRECORD
  5
32E
102
{ACAD_REACTORS
330
32D
102
}
330
32D
100
AcDbXrecord
280
     1
102
RTVSPropertyOp0
 70
     1
102
RTVSPropertyOp1
 70
     1
102
RTVSPropertyOp2
 70
     1
102
RTVSPropertyOp3
 70
     1
102
RTVSPropertyOp4
 70
     1
102
RTVSPropertyOp5
 70
     1
102
RTVSPropertyOp6
 70
     1
102
RTVSPropertyOp7
 70
     1
102
RTVSPropertyOp8
 70
     1
102
RTVSPropertyOp9
 70
     1
102
RTVSPropertyOp10
 70
     1
102
RTVSPropertyOp11
 70
     1
102
RTVSPropertyOp12
 70
     1
102
RTVSPropertyOp13
 70
     1
102
RTVSPropertyOp14
 70
     1
102
RTVSPropertyOp15
 70
     1
102
RTVSPropertyOp16
 70
     1
102
RTVSPropertyOp17
 70
     1
102
RTVSPropertyOp18
 70
     1
102
RTVSPropertyOp19
 70
     1
102
RTVSPropertyOp20
 70
     1
102
RTVSPropertyOp21
 70
     1
102
RTVSPropertyOp22
 70
     1
102
RTVSPropertyOp23
 70
     1
102
RTVSPropertyOp24
 70
     1
102
RTVSPropertyOp25
 70
     1
102
RTVSPropertyOp26
 70
     1
102
RTVSPropertyOp27
 70
     1
102
RTVSPropertyOp28
 70
     1
102
RTVSPropertyOp29
 70
     1
102
RTVSPropertyOp30
 70
     1
102
RTVSPropertyOp31
 70
     1
102
RTVSPropertyOp32
 70
     1
  0
XRECORD
  5
330
102
{ACAD_REACTORS
330
32F
102
}
330
32F
100
AcDbXrecord
280
     1
102
RTVSPropertyOp0
 70
     1
102
RTVSPropertyOp1
 70
     1
102
RTVSPropertyOp2
 70
     1
102
RTVSPropertyOp3
 70
     1
102
RTVSPropertyOp4
 70
     1
102
RTVSPropertyOp5
 70
     1
102
RTVSPropertyOp6
 70
     1
102
RTVSPropertyOp7
 70
     1
102
RTVSPropertyOp8
 70
     1
102
RTVSPropertyOp9
 70
     1
102
RTVSPropertyOp10
 70
     1
102
RTVSPropertyOp11
 70
     1
102
RTVSPropertyOp12
 70
     1
102
RTVSPropertyOp13
 70
     1
102
RTVSPropertyOp14
 70
     1
102
RTVSPropertyOp15
 70
     1
102
RTVSPropertyOp16
 70
     1
102
RTVSPropertyOp17
 70
     1
102
RTVSPropertyOp18
 70
     1
102
RTVSPropertyOp19
 70
     1
102
RTVSPropertyOp20
 70
     1
102
RTVSPropertyOp21
 70
     1
102
RTVSPropertyOp22
 70
     1
102
RTVSPropertyOp23
 70
     1
102
RTVSPropertyOp24
 70
     1
102
RTVSPropertyOp25
 70
     1
102
RTVSPropertyOp26
 70
     1
102
RTVSPropertyOp27
 70
     1
102
RTVSPropertyOp28
 70
     1
102
RTVSPropertyOp29
 70
     1
102
RTVSPropertyOp30
 70
     1
102
RTVSPropertyOp31
 70
     1
102
RTVSPropertyOp32
 70
     1
  0
XRECORD
  5
344
102
{ACAD_REACTORS
330
343
102
}
330
343
100
AcDbXrecord
280
     1
102
RTVSPropertyOp0
 70
     1
102
RTVSPropertyOp1
 70
     1
102
RTVSPropertyOp2
 70
     1
102
RTVSPropertyOp3
 70
     1
102
RTVSPropertyOp4
 70
     1
102
RTVSPropertyOp5
 70
     1
102
RTVSPropertyOp6
 70
     1
102
RTVSPropertyOp7
 70
     1
102
RTVSPropertyOp8
 70
     1
102
RTVSPropertyOp9
 70
     1
102
RTVSPropertyOp10
 70
     1
102
RTVSPropertyOp11
 70
     1
102
RTVSPropertyOp12
 70
     1
102
RTVSPropertyOp13
 70
     1
102
RTVSPropertyOp14
 70
     1
102
RTVSPropertyOp15
 70
     1
102
RTVSPropertyOp16
 70
     1
102
RTVSPropertyOp17
 70
     1
102
RTVSPropertyOp18
 70
     1
102
RTVSPropertyOp19
 70
     1
102
RTVSPropertyOp20
 70
     1
102
RTVSPropertyOp21
 70
     1
102
RTVSPropertyOp22
 70
     1
102
RTVSPropertyOp23
 70
     1
102
RTVSPropertyOp24
 70
     1
102
RTVSPropertyOp25
 70
     1
102
RTVSPropertyOp26
 70
     1
102
RTVSPropertyOp27
 70
     1
102
RTVSPropertyOp28
 70
     1
102
RTVSPropertyOp29
 70
     1
102
RTVSPropertyOp30
 70
     1
102
RTVSPropertyOp31
 70
     1
102
RTVSPropertyOp32
 70
     1
  0
XRECORD
  5
33A
102
{ACAD_REACTORS
330
339
102
}
330
339
100
AcDbXrecord
280
     1
102
RTVSPropertyOp0
 70
     1
102
RTVSPropertyOp1
 70
     1
102
RTVSPropertyOp2
 70
     1
102
RTVSPropertyOp3
 70
     1
102
RTVSPropertyOp4
 70
     1
102
RTVSPropertyOp5
 70
     1
102
RTVSPropertyOp6
 70
     1
102
RTVSPropertyOp7
 70
     1
102
RTVSPropertyOp8
 70
     1
102
RTVSPropertyOp9
 70
     1
102
RTVSPropertyOp10
 70
     1
102
RTVSPropertyOp11
 70
     1
102
RTVSPropertyOp12
 70
     1
102
RTVSPropertyOp13
 70
     1
102
RTVSPropertyOp14
 70
     1
102
RTVSPropertyOp15
 70
     1
102
RTVSPropertyOp16
 70
     1
102
RTVSPropertyOp17
 70
     1
102
RTVSPropertyOp18
 70
     1
102
RTVSPropertyOp19
 70
     1
102
RTVSPropertyOp20
 70
     1
102
RTVSPropertyOp21
 70
     1
102
RTVSPropertyOp22
 70
     1
102
RTVSPropertyOp23
 70
     1
102
RTVSPropertyOp24
 70
     1
102
RTVSPropertyOp25
 70
     1
102
RTVSPropertyOp26
 70
     1
102
RTVSPropertyOp27
 70
     1
102
RTVSPropertyOp28
 70
     1
102
RTVSPropertyOp29
 70
     1
102
RTVSPropertyOp30
 70
     1
102
RTVSPropertyOp31
 70
     1
102
RTVSPropertyOp32
 70
     1
  0
XRECORD
  5
342
102
{ACAD_REACTORS
330
341
102
}
330
341
100
AcDbXrecord
280
     1
102
RTVSPropertyOp0
 70
     1
102
RTVSPropertyOp1
 70
     1
102
RTVSPropertyOp2
 70
     1
102
RTVSPropertyOp3
 70
     1
102
RTVSPropertyOp4
 70
     1
102
RTVSPropertyOp5
 70
     1
102
RTVSPropertyOp6
 70
     1
102
RTVSPropertyOp7
 70
     1
102
RTVSPropertyOp8
 70
     1
102
RTVSPropertyOp9
 70
     1
102
RTVSPropertyOp10
 70
     1
102
RTVSPropertyOp11
 70
     1
102
RTVSPropertyOp12
 70
     1
102
RTVSPropertyOp13
 70
     1
102
RTVSPropertyOp14
 70
     1
102
RTVSPropertyOp15
 70
     1
102
RTVSPropertyOp16
 70
     1
102
RTVSPropertyOp17
 70
     1
102
RTVSPropertyOp18
 70
     1
102
RTVSPropertyOp19
 70
     1
102
RTVSPropertyOp20
 70
     1
102
RTVSPropertyOp21
 70
     1
102
RTVSPropertyOp22
 70
     1
102
RTVSPropertyOp23
 70
     1
102
RTVSPropertyOp24
 70
     1
102
RTVSPropertyOp25
 70
     1
102
RTVSPropertyOp26
 70
     1
102
RTVSPropertyOp27
 70
     1
102
RTVSPropertyOp28
 70
     1
102
RTVSPropertyOp29
 70
     1
102
RTVSPropertyOp30
 70
     1
102
RTVSPropertyOp31
 70
     1
102
RTVSPropertyOp32
 70
     1
  0
ENDSEC
  0
EOF
